Академія Амбрелла (Сезон 1-2) / The Umbrella Academy (Season 1-2) (2019-2020) 720p Ukr/Eng | sub Multi

Нові коментарі

Нова тема   Відповісти
Автор Повідомлення
Anonymous 







2020-11-06 21:14  
Академія Амбрелла (Сезон 1-2) / The Umbrella Academy (Season 1-2) (2019-2020) 720p Ukr/Eng | sub Multi

Академія Амбрелла (Сезон 1-2) / The Umbrella Academy (Season 1-2) (2019-2020) 720p Ukr/Eng | sub Multi


Жанр: екшн, пригодницький, комедія
Країна: США



Кінокомпанія: Dark Horse Entertainment, Universal Cable Productions
Режисер: Ендрю Бернштейн, Пітер Хор, Еллен Керас
Актори: Ейдан Галлахер, Джастін Х. Мін, Камерон Бріттон, Іден К'юпід, Кемерон Бродер, Ітан Хван, Еллен Пейдж, Том Хоппер, Девід Кастанеда, Мері Джей Блайдж

Сюжет:
Цікава та оригінальна екранізація однойменної серії фантастичних коміксів екс-вокаліста рок-групи My Chemical Romance Джерарда Уея про супергероїв.

За сюжетом, в жовтні 1989 року, прямо в один день трапляється диво - сорок три жінки, в різних куточках світу, не продемонструвавши жодних ознак вагітності, народжують майже в один і той самий час. Ці діти надзвичайно обдаровані і одразу стають об’єктами полювання як для спецслужб, так і негідників з усього світу.

Семеро щасливчиків, Клаус, Лютер, Дієго, Еллісон, Бен, Ваня і неназваний п’ятий номер, усиновлені багатим діловим магнатом сером Реджинальдом Харгрівзом, який створює «Академію «Амбрелла», де планує навчити молодих людей контролювати свої надзвичайні здібності та створити команду супергерої.

Через багато років, після смерті прийомного батька, приходить час коли команда має об’єднатись для порятунку світу...


Тривалість: 1 серія: ~ 1 год. (цілком серій: 20)
Перелік серій
Season 1
1. We Only See Each Other at Weddings and Funerals
2. Run Boy Run
3. Extra Ordinary
4. Man on the Moon
5. Number Five
6. The Day That Wasn't
7. The Day That Was
8. I Heard a Rumor
9. Changes
10. The White Violin

Season 2
1. Right Back Where We Started
2. The Frankel Footage
3. The Swedish Job
4. The Majestic 12
5. Valhalla
6. A Light Supper
7. Öga for Öga
8. The Seven Stages
9. 743
10. The End of Something
Якість:
Відео:
кодек:
розмір кадру: 1280 х 640 (1), 1280 х 720 (2)
бітрейт: 1854 кб/с (1), 2610 кб/с (2)

Аудіо # 1:
мова: українська
переклад: багатоголосий закадровий
кодек: 5.1
бітрейт: 384 кб/с

Аудіо # 2:
мова: англійська
переклад: оригінал
кодек: 5.1
бітрейт: 640 кб/с

Джерело озвучення:
DniproFilm

Субтитри:
мова: українська [Forced] (2 сезон)
тип: програмні (м'які)
формат: *.srt

Субтитри:
мова: англійська, англійська [SDH] (2), арабська (2), чеська (2), данська, німецька, грецька, іспанська (лат.), іспанська (євр.), фінська, французька, гебрейська (2), угорська (2), індонезійська, італійська, японська (2), корейська (2), норвезька, нідерландська, польська, португальська, португальська (браз.), румунська (2), шведська, тайська (2), турецька, в'єтнамська (2), китайська (спрощ.) (2), китайська (трад.) (2)
тип: програмні (м'які)
формат: *.srt
Info
1 сезон
Код:
General
Unique ID                                : 195917704405597060107242238585090783753 (0x9364609A56ECC8F1BA7000E25086BA09)
Complete name                            : The Umbrella Academy S01E01 (2019) 720p [Ukr_Eng] [Hurtom].
Format                                   :
Format version                           : Version 4
File size                                : 1.19 GiB
Duration                                 : 59 min 18 s
Overall bit rate                         : 2 882 kb/s
Movie name                               : Академія Амбрелла (Сезон 1, серія 1) (2019)
Encoded date                             : UTC 2020-11-05 19:05:47
Writing application                      : v50.0.0 ('Awakenings') 64-bit
Writing library                          : libebml v1.4.0 + v1.6.2
Cover                                    : Yes
Attachments                              : cover.jpg

Video
ID                                       : 1
Format                                   : AVC
Format/Info                              : Advanced Video Codec
Format profile                           : [email protected]
Format settings                          : CABAC / 5 Ref Frames
Format settings, CABAC                   : Yes
Format settings, Reference frames        : 5 frames
Codec ID                                 : V_MPEG4/ISO/AVC
Duration                                 : 59 min 17 s
Bit rate                                 : 1 854 kb/s
Width                                    : 1 280 pixels
Height                                   : 640 pixels
Display aspect ratio                     : 2.000
Frame rate mode                          : Constant
Frame rate                               : 23.976 (24000/1001) FPS
Color space                              : YUV
Chroma subsampling                       : 4:2:0
Bit depth                                : 8 bits
Scan type                                : Progressive
Bits/(Pixel*Frame)                       : 0.094
Stream size                              : 786 MiB (64%)
Writing library                          : core 157 r2935 545de2f
Encoding settings                        : cabac=1 / ref=5 / deblock=1:-3:-3 / analyse=0x3:0x113 / me=umh / subme=8 / psy=1 / psy_rd=1.00:0.00 / mixed_ref=1 / me_range=16 / chroma_me=1 / trellis=2 / 8x8dct=1 / cqm=0 / deadzone=21,11 / fast_pskip=1 / chroma_qp_offset=-2 / threads=20 / lookahead_threads=3 / sliced_threads=0 / nr=0 / decimate=1 / interlaced=0 / bluray_compat=0 / constrained_intra=0 / bframes=3 / b_pyramid=2 / b_adapt=1 / b_bias=0 / direct=3 / weightb=1 / open_gop=0 / weightp=2 / keyint=250 / keyint_min=23 / scenecut=40 / intra_refresh=0 / rc_lookahead=50 / rc=crf / mbtree=1 / crf=18.0 / qcomp=0.60 / qpmin=0 / qpmax=69 / qpstep=4 / ip_ratio=1.40 / aq=3:0.80
Language                                 : English
Default                                  : Yes
Forced                                   : No

Audio #1
ID                                       : 2
Format                                   : AC-3
Format/Info                              : Audio Coding 3
Commercial name                          : Dolby Digital
Codec ID                                 : A_AC3
Duration                                 : 59 min 18 s
Bit rate mode                            : Constant
Bit rate                                 : 384 kb/s
Channel(s)                               : 6 channels
Channel layout                           : L R C LFE Ls Rs
Sampling rate                            : 48.0 kHz
Frame rate                               : 31.250 FPS (1536 SPF)
Compression mode                         : Lossy
Stream size                              : 163 MiB (13%)
Language                                 : Ukrainian
Service kind                             : Complete Main
Default                                  : Yes
Forced                                   : Yes

Audio #2
ID                                       : 3
Format                                   : E-AC-3
Format/Info                              : Enhanced AC-3
Commercial name                          : Dolby Digital Plus
Codec ID                                 : A_EAC3
Duration                                 : 59 min 18 s
Bit rate mode                            : Constant
Bit rate                                 : 640 kb/s
Channel(s)                               : 6 channels
Channel layout                           : L R C LFE Ls Rs
Sampling rate                            : 48.0 kHz
Frame rate                               : 31.250 FPS (1536 SPF)
Compression mode                         : Lossy
Stream size                              : 271 MiB (22%)
Language                                 : English
Service kind                             : Complete Main
Default                                  : No
Forced                                   : No

Text #1
ID                                       : 4
Format                                   : UTF-8
Codec ID                                 : S_TEXT/UTF8
Codec ID/Info                            : UTF-8 Plain Text
Duration                                 : 58 min 4 s
Bit rate                                 : 41 b/s
Count of elements                        : 574
Stream size                              : 17.5 KiB (0%)
Title                                    : Danish
Language                                 : Danish
Default                                  : No
Forced                                   : No

Text #2
ID                                       : 5
Format                                   : UTF-8
Codec ID                                 : S_TEXT/UTF8
Codec ID/Info                            : UTF-8 Plain Text
Duration                                 : 58 min 4 s
Bit rate                                 : 44 b/s
Count of elements                        : 578
Stream size                              : 18.7 KiB (0%)
Title                                    : German
Language                                 : German
Default                                  : No
Forced                                   : No

Text #3
ID                                       : 6
Format                                   : UTF-8
Codec ID                                 : S_TEXT/UTF8
Codec ID/Info                            : UTF-8 Plain Text
Duration                                 : 58 min 5 s
Bit rate                                 : 64 b/s
Count of elements                        : 580
Stream size                              : 27.5 KiB (0%)
Title                                    : Greek
Language                                 : Greek
Default                                  : No
Forced                                   : No

Text #4
ID                                       : 7
Format                                   : UTF-8
Codec ID                                 : S_TEXT/UTF8
Codec ID/Info                            : UTF-8 Plain Text
Duration                                 : 58 min 4 s
Bit rate                                 : 39 b/s
Count of elements                        : 584
Stream size                              : 17.0 KiB (0%)
Title                                    : European Spanish
Language                                 : Spanish
Default                                  : No
Forced                                   : No

Text #5
ID                                       : 8
Format                                   : UTF-8
Codec ID                                 : S_TEXT/UTF8
Codec ID/Info                            : UTF-8 Plain Text
Duration                                 : 58 min 3 s
Bit rate                                 : 40 b/s
Count of elements                        : 549
Stream size                              : 17.4 KiB (0%)
Title                                    : Spanish
Language                                 : Spanish
Default                                  : No
Forced                                   : No

Text #6
ID                                       : 9
Format                                   : UTF-8
Codec ID                                 : S_TEXT/UTF8
Codec ID/Info                            : UTF-8 Plain Text
Duration                                 : 58 min 5 s
Bit rate                                 : 35 b/s
Count of elements                        : 492
Stream size                              : 15.1 KiB (0%)
Title                                    : Finnish
Language                                 : Finnish
Default                                  : No
Forced                                   : No

Text #7
ID                                       : 10
Format                                   : UTF-8
Codec ID                                 : S_TEXT/UTF8
Codec ID/Info                            : UTF-8 Plain Text
Duration                                 : 57 min 18 s
Bit rate                                 : 39 b/s
Count of elements                        : 546
Stream size                              : 16.4 KiB (0%)
Title                                    : French
Language                                 : French
Default                                  : No
Forced                                   : No

Text #8
ID                                       : 11
Format                                   : UTF-8
Codec ID                                 : S_TEXT/UTF8
Codec ID/Info                            : UTF-8 Plain Text
Duration                                 : 58 min 5 s
Bit rate                                 : 41 b/s
Count of elements                        : 583
Stream size                              : 17.5 KiB (0%)
Title                                    : Indonesian
Language                                 : Indonesian
Default                                  : No
Forced                                   : No

Text #9
ID                                       : 12
Format                                   : UTF-8
Codec ID                                 : S_TEXT/UTF8
Codec ID/Info                            : UTF-8 Plain Text
Duration                                 : 58 min 2 s
Bit rate                                 : 41 b/s
Count of elements                        : 573
Stream size                              : 17.6 KiB (0%)
Title                                    : Italian
Language                                 : Italian
Default                                  : No
Forced                                   : No

Text #10
ID                                       : 13
Format                                   : UTF-8
Codec ID                                 : S_TEXT/UTF8
Codec ID/Info                            : UTF-8 Plain Text
Duration                                 : 58 min 5 s
Bit rate                                 : 39 b/s
Count of elements                        : 549
Stream size                              : 16.7 KiB (0%)
Title                                    : Norwegian
Language                                 : Norwegian
Default                                  : No
Forced                                   : No

Text #11
ID                                       : 14
Format                                   : UTF-8
Codec ID                                 : S_TEXT/UTF8
Codec ID/Info                            : UTF-8 Plain Text
Duration                                 : 58 min 2 s
Bit rate                                 : 38 b/s
Count of elements                        : 551
Stream size                              : 16.4 KiB (0%)
Title                                    : Dutch
Language                                 : Dutch
Default                                  : No
Forced                                   : No

Text #12
ID                                       : 15
Format                                   : UTF-8
Codec ID                                 : S_TEXT/UTF8
Codec ID/Info                            : UTF-8 Plain Text
Duration                                 : 58 min 4 s
Bit rate                                 : 35 b/s
Count of elements                        : 522
Stream size                              : 15.1 KiB (0%)
Title                                    : Polish
Language                                 : Polish
Default                                  : No
Forced                                   : No

Text #13
ID                                       : 16
Format                                   : UTF-8
Codec ID                                 : S_TEXT/UTF8
Codec ID/Info                            : UTF-8 Plain Text
Duration                                 : 58 min 5 s
Bit rate                                 : 40 b/s
Count of elements                        : 548
Stream size                              : 17.2 KiB (0%)
Title                                    : Brazilian Portuguese
Language                                 : Portuguese
Default                                  : No
Forced                                   : No

Text #14
ID                                       : 17
Format                                   : UTF-8
Codec ID                                 : S_TEXT/UTF8
Codec ID/Info                            : UTF-8 Plain Text
Duration                                 : 58 min 5 s
Bit rate                                 : 42 b/s
Count of elements                        : 563
Stream size                              : 17.9 KiB (0%)
Title                                    : Portuguese
Language                                 : Portuguese
Default                                  : No
Forced                                   : No

Text #15
ID                                       : 18
Format                                   : UTF-8
Codec ID                                 : S_TEXT/UTF8
Codec ID/Info                            : UTF-8 Plain Text
Duration                                 : 58 min 5 s
Bit rate                                 : 38 b/s
Count of elements                        : 554
Stream size                              : 16.2 KiB (0%)
Title                                    : Swedish
Language                                 : Swedish
Default                                  : No
Forced                                   : No

Text #16
ID                                       : 19
Format                                   : UTF-8
Codec ID                                 : S_TEXT/UTF8
Codec ID/Info                            : UTF-8 Plain Text
Duration                                 : 58 min 3 s
Bit rate                                 : 42 b/s
Count of elements                        : 583
Stream size                              : 18.2 KiB (0%)
Title                                    : Turkish
Language                                 : Turkish
Default                                  : No
Forced                                   : No

Text #17
ID                                       : 20
Format                                   : UTF-8
Codec ID                                 : S_TEXT/UTF8
Codec ID/Info                            : UTF-8 Plain Text
Duration                                 : 57 min 4 s
Bit rate                                 : 57 b/s
Count of elements                        : 774
Stream size                              : 24.2 KiB (0%)
Title                                    : English
Language                                 : English
Default                                  : No
Forced                                   : No


2 сезон
Код:
General
Unique ID                                : 330034557859094500569871273625296095274 (0xF84A5801123171625E9532C5ADB4C82A)
Complete name                            : The Umbrella Academy S02E01 (2020) 720p [Ukr_Eng] [Hurtom].
Format                                   :
Format version                           : Version 4
File size                                : 1.17 GiB
Duration                                 : 47 min 1 s
Overall bit rate mode                    : Variable
Overall bit rate                         : 3 554 kb/s
Movie name                               : Академія Амбрелла (Сезон 2, серія 1) (2020)
Encoded date                             : UTC 2020-11-05 20:04:59
Writing application                      : v50.0.0 ('Awakenings') 64-bit
Writing library                          : libebml v1.4.0 + v1.6.2
Cover                                    : Yes
Attachments                              : cover.jpg

Video
ID                                       : 1
Format                                   : AVC
Format/Info                              : Advanced Video Codec
Format profile                           : [email protected]
Format settings                          : CABAC / 3 Ref Frames
Format settings, CABAC                   : Yes
Format settings, Reference frames        : 3 frames
Codec ID                                 : V_MPEG4/ISO/AVC
Duration                                 : 47 min 1 s
Bit rate mode                            : Variable
Bit rate                                 : 2 610 kb/s
Maximum bit rate                         : 3 915 kb/s
Width                                    : 1 280 pixels
Height                                   : 720 pixels
Display aspect ratio                     : 16:9
Frame rate mode                          : Constant
Frame rate                               : 23.976 (24000/1001) FPS
Color space                              : YUV
Chroma subsampling                       : 4:2:0
Bit depth                                : 8 bits
Scan type                                : Progressive
Bits/(Pixel*Frame)                       : 0.118
Stream size                              : 849 MiB (71%)
Writing library                          : core 148 r2722 1b0121b
Encoding settings                        : cabac=1 / ref=3 / deblock=1:0:0 / analyse=0x1:0x111 / me=umh / subme=10 / psy=1 / psy_rd=1.00:0.00 / mixed_ref=1 / me_range=24 / chroma_me=1 / trellis=2 / 8x8dct=0 / cqm=0 / deadzone=21,11 / fast_pskip=1 / chroma_qp_offset=-2 / threads=8 / lookahead_threads=1 / sliced_threads=0 / nr=0 / decimate=1 / interlaced=0 / bluray_compat=0 / stitchable=1 / constrained_intra=0 / bframes=2 / b_pyramid=0 / b_adapt=2 / b_bias=0 / direct=3 / weightb=1 / open_gop=0 / weightp=2 / keyint=250 / keyint_min=23 / scenecut=0 / intra_refresh=0 / rc_lookahead=48 / rc=2pass / mbtree=1 / bitrate=2610 / ratetol=1.0 / qcomp=0.50 / qpmin=6 / qpmax=51 / qpstep=4 / cplxblur=20.0 / qblur=0.5 / vbv_maxrate=3915 / vbv_bufsize=5220 / nal_hrd=vbr / filler=0 / ip_ratio=1.40 / aq=1:1.00
Default                                  : Yes
Forced                                   : No

Audio #1
ID                                       : 2
Format                                   : AC-3
Format/Info                              : Audio Coding 3
Commercial name                          : Dolby Digital
Codec ID                                 : A_AC3
Duration                                 : 47 min 1 s
Bit rate mode                            : Constant
Bit rate                                 : 384 kb/s
Channel(s)                               : 6 channels
Channel layout                           : L R C LFE Ls Rs
Sampling rate                            : 48.0 kHz
Frame rate                               : 31.250 FPS (1536 SPF)
Compression mode                         : Lossy
Stream size                              : 129 MiB (11%)
Language                                 : Ukrainian
Service kind                             : Complete Main
Default                                  : Yes
Forced                                   : Yes

Audio #2
ID                                       : 3
Format                                   : E-AC-3
Format/Info                              : Enhanced AC-3
Commercial name                          : Dolby Digital Plus
Codec ID                                 : A_EAC3
Duration                                 : 47 min 1 s
Bit rate mode                            : Constant
Bit rate                                 : 640 kb/s
Channel(s)                               : 6 channels
Channel layout                           : L R C LFE Ls Rs
Sampling rate                            : 48.0 kHz
Frame rate                               : 31.250 FPS (1536 SPF)
Compression mode                         : Lossy
Stream size                              : 215 MiB (18%)
Title                                    : English
Language                                 : English
Service kind                             : Complete Main
Default                                  : No
Forced                                   : No

Text #1
ID                                       : 4
Format                                   : UTF-8
Codec ID                                 : S_TEXT/UTF8
Codec ID/Info                            : UTF-8 Plain Text
Duration                                 : 41 min 58 s
Bit rate                                 : 1 b/s
Count of elements                        : 8
Stream size                              : 319 Bytes (0%)
Title                                    : Forced
Language                                 : Ukrainian
Default                                  : Yes
Forced                                   : Yes

Text #2
ID                                       : 5
Format                                   : UTF-8
Codec ID                                 : S_TEXT/UTF8
Codec ID/Info                            : UTF-8 Plain Text
Duration                                 : 44 min 17 s
Bit rate                                 : 76 b/s
Count of elements                        : 744
Stream size                              : 24.8 KiB (0%)
Language                                 : English
Default                                  : No
Forced                                   : No

Text #3
ID                                       : 6
Format                                   : UTF-8
Codec ID                                 : S_TEXT/UTF8
Codec ID/Info                            : UTF-8 Plain Text
Duration                                 : 44 min 35 s
Bit rate                                 : 91 b/s
Count of elements                        : 876
Stream size                              : 30.0 KiB (0%)
Title                                    : SDH
Language                                 : English
Default                                  : No
Forced                                   : No

Text #4
ID                                       : 7
Format                                   : UTF-8
Codec ID                                 : S_TEXT/UTF8
Codec ID/Info                            : UTF-8 Plain Text
Duration                                 : 45 min 31 s
Bit rate                                 : 94 b/s
Count of elements                        : 636
Stream size                              : 31.6 KiB (0%)
Language                                 : Arabic
Default                                  : No
Forced                                   : No

Text #5
ID                                       : 8
Format                                   : UTF-8
Codec ID                                 : S_TEXT/UTF8
Codec ID/Info                            : UTF-8 Plain Text
Duration                                 : 44 min 34 s
Bit rate                                 : 51 b/s
Count of elements                        : 634
Stream size                              : 17.0 KiB (0%)
Language                                 : Czech
Default                                  : No
Forced                                   : No

Text #6
ID                                       : 9
Format                                   : UTF-8
Codec ID                                 : S_TEXT/UTF8
Codec ID/Info                            : UTF-8 Plain Text
Duration                                 : 45 min 29 s
Bit rate                                 : 48 b/s
Count of elements                        : 570
Stream size                              : 16.2 KiB (0%)
Language                                 : Danish
Default                                  : No
Forced                                   : No

Text #7
ID                                       : 10
Format                                   : UTF-8
Codec ID                                 : S_TEXT/UTF8
Codec ID/Info                            : UTF-8 Plain Text
Duration                                 : 45 min 29 s
Bit rate                                 : 51 b/s
Count of elements                        : 595
Stream size                              : 17.1 KiB (0%)
Language                                 : German
Default                                  : No
Forced                                   : No

Text #8
ID                                       : 11
Format                                   : UTF-8
Codec ID                                 : S_TEXT/UTF8
Codec ID/Info                            : UTF-8 Plain Text
Duration                                 : 45 min 29 s
Bit rate                                 : 85 b/s
Count of elements                        : 620
Stream size                              : 28.5 KiB (0%)
Language                                 : Greek
Default                                  : No
Forced                                   : No

Text #9
ID                                       : 12
Format                                   : UTF-8
Codec ID                                 : S_TEXT/UTF8
Codec ID/Info                            : UTF-8 Plain Text
Duration                                 : 45 min 29 s
Bit rate                                 : 53 b/s
Count of elements                        : 602
Stream size                              : 17.7 KiB (0%)
Language                                 : Spanish
Default                                  : No
Forced                                   : No

Text #10
ID                                       : 13
Format                                   : UTF-8
Codec ID                                 : S_TEXT/UTF8
Codec ID/Info                            : UTF-8 Plain Text
Duration                                 : 45 min 29 s
Bit rate                                 : 50 b/s
Count of elements                        : 575
Stream size                              : 16.8 KiB (0%)
Title                                    : European
Language                                 : Spanish
Default                                  : No
Forced                                   : No

Text #11
ID                                       : 14
Format                                   : UTF-8
Codec ID                                 : S_TEXT/UTF8
Codec ID/Info                            : UTF-8 Plain Text
Duration                                 : 45 min 31 s
Bit rate                                 : 48 b/s
Count of elements                        : 508
Stream size                              : 16.2 KiB (0%)
Language                                 : Finnish
Default                                  : No
Forced                                   : No

Text #12
ID                                       : 15
Format                                   : UTF-8
Codec ID                                 : S_TEXT/UTF8
Codec ID/Info                            : UTF-8 Plain Text
Duration                                 : 45 min 29 s
Bit rate                                 : 49 b/s
Count of elements                        : 570
Stream size                              : 16.3 KiB (0%)
Language                                 : French
Default                                  : No
Forced                                   : No

Text #13
ID                                       : 16
Format                                   : UTF-8
Codec ID                                 : S_TEXT/UTF8
Codec ID/Info                            : UTF-8 Plain Text
Duration                                 : 45 min 29 s
Bit rate                                 : 87 b/s
Count of elements                        : 571
Stream size                              : 29.2 KiB (0%)
Language                                 : Hebrew
Default                                  : No
Forced                                   : No

Text #14
ID                                       : 17
Format                                   : UTF-8
Codec ID                                 : S_TEXT/UTF8
Codec ID/Info                            : UTF-8 Plain Text
Duration                                 : 45 min 29 s
Bit rate                                 : 49 b/s
Count of elements                        : 590
Stream size                              : 16.5 KiB (0%)
Language                                 : Hungarian
Default                                  : No
Forced                                   : No

Text #15
ID                                       : 18
Format                                   : UTF-8
Codec ID                                 : S_TEXT/UTF8
Codec ID/Info                            : UTF-8 Plain Text
Duration                                 : 45 min 31 s
Bit rate                                 : 53 b/s
Count of elements                        : 644
Stream size                              : 17.8 KiB (0%)
Language                                 : Indonesian
Default                                  : No
Forced                                   : No

Text #16
ID                                       : 19
Format                                   : UTF-8
Codec ID                                 : S_TEXT/UTF8
Codec ID/Info                            : UTF-8 Plain Text
Duration                                 : 45 min 29 s
Bit rate                                 : 52 b/s
Count of elements                        : 541
Stream size                              : 17.4 KiB (0%)
Language                                 : Italian
Default                                  : No
Forced                                   : No

Text #17
ID                                       : 20
Format                                   : UTF-8
Codec ID                                 : S_TEXT/UTF8
Codec ID/Info                            : UTF-8 Plain Text
Duration                                 : 45 min 31 s
Bit rate                                 : 49 b/s
Count of elements                        : 588
Stream size                              : 16.6 KiB (0%)
Language                                 : Japanese
Default                                  : No
Forced                                   : No

Text #18
ID                                       : 21
Format                                   : UTF-8
Codec ID                                 : S_TEXT/UTF8
Codec ID/Info                            : UTF-8 Plain Text
Duration                                 : 45 min 31 s
Bit rate                                 : 66 b/s
Count of elements                        : 659
Stream size                              : 22.1 KiB (0%)
Language                                 : Korean
Default                                  : No
Forced                                   : No

Text #19
ID                                       : 22
Format                                   : UTF-8
Codec ID                                 : S_TEXT/UTF8
Codec ID/Info                            : UTF-8 Plain Text
Duration                                 : 45 min 29 s
Bit rate                                 : 52 b/s
Count of elements                        : 501
Stream size                              : 17.4 KiB (0%)
Language                                 : Norwegian Bokmal
Default                                  : No
Forced                                   : No

Text #20
ID                                       : 23
Format                                   : UTF-8
Codec ID                                 : S_TEXT/UTF8
Codec ID/Info                            : UTF-8 Plain Text
Duration                                 : 45 min 29 s
Bit rate                                 : 45 b/s
Count of elements                        : 543
Stream size                              : 15.2 KiB (0%)
Language                                 : Dutch
Default                                  : No
Forced                                   : No

Text #21
ID                                       : 24
Format                                   : UTF-8
Codec ID                                 : S_TEXT/UTF8
Codec ID/Info                            : UTF-8 Plain Text
Duration                                 : 45 min 31 s
Bit rate                                 : 51 b/s
Count of elements                        : 619
Stream size                              : 17.0 KiB (0%)
Language                                 : Polish
Default                                  : No
Forced                                   : No

Text #22
ID                                       : 25
Format                                   : UTF-8
Codec ID                                 : S_TEXT/UTF8
Codec ID/Info                            : UTF-8 Plain Text
Duration                                 : 45 min 31 s
Bit rate                                 : 54 b/s
Count of elements                        : 634
Stream size                              : 18.3 KiB (0%)
Language                                 : Portuguese
Default                                  : No
Forced                                   : No

Text #23
ID                                       : 26
Format                                   : UTF-8
Codec ID                                 : S_TEXT/UTF8
Codec ID/Info                            : UTF-8 Plain Text
Duration                                 : 45 min 29 s
Bit rate                                 : 56 b/s
Count of elements                        : 602
Stream size                              : 18.8 KiB (0%)
Title                                    : Brazilian
Language                                 : Portuguese
Default                                  : No
Forced                                   : No

Text #24
ID                                       : 27
Format                                   : UTF-8
Codec ID                                 : S_TEXT/UTF8
Codec ID/Info                            : UTF-8 Plain Text
Duration                                 : 44 min 40 s
Bit rate                                 : 58 b/s
Count of elements                        : 547
Stream size                              : 19.2 KiB (0%)
Language                                 : Romanian
Default                                  : No
Forced                                   : No

Text #25
ID                                       : 28
Format                                   : UTF-8
Codec ID                                 : S_TEXT/UTF8
Codec ID/Info                            : UTF-8 Plain Text
Duration                                 : 45 min 29 s
Bit rate                                 : 50 b/s
Count of elements                        : 541
Stream size                              : 16.9 KiB (0%)
Language                                 : Swedish
Default                                  : No
Forced                                   : No

Text #26
ID                                       : 29
Format                                   : UTF-8
Codec ID                                 : S_TEXT/UTF8
Codec ID/Info                            : UTF-8 Plain Text
Duration                                 : 45 min 29 s
Bit rate                                 : 130 b/s
Count of elements                        : 651
Stream size                              : 43.4 KiB (0%)
Language                                 : Thai
Default                                  : No
Forced                                   : No

Text #27
ID                                       : 30
Format                                   : UTF-8
Codec ID                                 : S_TEXT/UTF8
Codec ID/Info                            : UTF-8 Plain Text
Duration                                 : 45 min 29 s
Bit rate                                 : 51 b/s
Count of elements                        : 537
Stream size                              : 17.2 KiB (0%)
Language                                 : Turkish
Default                                  : No
Forced                                   : No

Text #28
ID                                       : 31
Format                                   : UTF-8
Codec ID                                 : S_TEXT/UTF8
Codec ID/Info                            : UTF-8 Plain Text
Duration                                 : 45 min 30 s
Bit rate                                 : 73 b/s
Count of elements                        : 608
Stream size                              : 24.5 KiB (0%)
Language                                 : Vietnamese
Default                                  : No
Forced                                   : No

Text #29
ID                                       : 32
Format                                   : UTF-8
Codec ID                                 : S_TEXT/UTF8
Codec ID/Info                            : UTF-8 Plain Text
Duration                                 : 45 min 30 s
Bit rate                                 : 62 b/s
Count of elements                        : 644
Stream size                              : 20.9 KiB (0%)
Title                                    : Simplified
Language                                 : Chinese
Default                                  : No
Forced                                   : No

Text #30
ID                                       : 33
Format                                   : UTF-8
Codec ID                                 : S_TEXT/UTF8
Codec ID/Info                            : UTF-8 Plain Text
Duration                                 : 45 min 29 s
Bit rate                                 : 59 b/s
Count of elements                        : 646
Stream size                              : 19.9 KiB (0%)
Title                                    : Traditional
Language                                 : Chinese
Default                                  : No
Forced                                   : No

Скріншоти
1 сезон



2 сезон



Джерело:


Авторський реліз (завантажувати можна без реєстрації)
 Трекер:    Зареєстрований   

Завантажити / скачати серіал українською



відео для новачків



 Зареєстрований:   2020-11-11 02:26
 Розмір:   21.61 GB 
 Оцінка серіалу:   9.2/10 (Голосів: 14)
   
Anonymous 







2020-11-06 21:16  
2 сезон тільки 5 серій, коли будуть наступні невідомо
don pedro 
Попереджень: 1
Попереджень: 1 


З нами з: 29.06.11
Востаннє: 28.11.20
Повідомлень: 18190

2020-11-11 00:45  
Гарний сезон. В чомусь кращий, аніж перший. Білява трійця з безглуздим набором зброї дуже мене потішила. Шкода тільки, що тут Ваня не грає на скрипці - для попереднього сезону написали гарні мелодії.
Увага усіх стурбованих цим питаннями: у серіалі є геї!

Anonymous 







2020-11-11 02:27  
Торент змінено, додано 6-10 серії другого сезону
wuzicka 
Новенький


З нами з: 08.03.10
Востаннє: 29.11.20
Повідомлень: 18

2020-11-11 14:34  
чи буде 1080?
maxoptimus 
Частий відвідувач


З нами з: 15.05.08
Востаннє: 29.11.20
Повідомлень: 39

2020-11-13 18:48  
теж цікаво s2 hd планується ?
Probel 
Свій


З нами з: 20.11.11
Востаннє: 28.11.20
Повідомлень: 61

2020-11-14 13:20  
а хтось може зробити окремий реліз 2 сезону ?
Anonymous 







2020-11-14 15:43  
Probel написано:
а хтось може зробити окремий реліз 2 сезону ?

при завантаженні просто зніміть галочку з теки першого сезону і стягнете тільки другий
wuzicka написано:
чи буде 1080?

планував робити 1080, але побачив, що перший сезон робив пан Vigor1964 https://toloka.to/t105607, тож подумав що він додасть

Ваш часовий пояс: GMT + 2 Години

Нова тема   Відповісти