Губка Боб: Втеча Губки / SpongeBob Movie: Sponge on the Run (2020) UHD 4K 2160p HDR H.265 Ukr/Eng | Sub Ukr/Eng

Нові коментарі

Нова тема   Відповісти
Автор Повідомлення
Anonymous 







2020-11-06 11:30  
Губка Боб: Втеча Губки / SpongeBob Movie: Sponge on the Run (2020) UHD 4K 2160p HDR H.265 Ukr/Eng | Sub Ukr/Eng

Губка Боб: Втеча Губки / SpongeBob Movie: Sponge on the Run (2020) UHD 4K 2160p HDR H.265 Ukr/Eng | Sub Ukr/Eng


Жанр: анімація, пригодницький, комедія
Країна: США



Кінокомпанія: Paramount Animation, Nickelodeon Movies, United Plankton Pictures
Режисер: Тім Гілл
Актори: Кіану Рівз, Том Кенні, Нора Лам, Стівен Гілленбур, Снуп Доґ.

Сюжет:
Фільм є приквелом до мультсеріалу. У фільмі буде показано, як Губка Боб зустрів своїх друзів у Таборі Корал. Прийшовши з роботи додому, Губка Боб не знаходить свого улюбленця Гері, бо його вкрав Посейдон і відправив Гері у загублене місто Атлантик-Сіті. Тож Губка Боб та його найкращий друг Патрік мають туди відправитися, щоб врятувати Гері, але Посейдон поставив пастки по дорозі туди.


Тривалість: 01:35:24
Якість: 2160p
Відео:
кодек: H.265 (HEVC)
розмір кадру: 3840x2160
бітрейт: ~14600 кб/с
бітова глибина: 10 біт

Аудіо # 1:
мова: українська
переклад: професійний дубльований | Le Doyen
кодек: E- 5.1
бітрейт: 640 кб/с

Аудіо # 2:
мова: англійська
переклад: оригінал
кодек: E-+Atmos 5.1
бітрейт: 768 кб/с

Субтитри:
мова: українська
тип: програмні (м'які) [форсовані і повні]
формат: *.srt

Субтитри:
мова: англійська
тип: програмні (м'які)
формат: *.srt
Info
General
Complete name : SpongeBob Movie Sponge on the Run (2020) UHD 2160p [Ukr_Eng].
Format :
Format version : Version 4
File size : 10.3 GiB
Duration : 1 h 35 min
Overall bit rate : 15.4 Mb/s
Movie name : Губка Боб: Втеча Губки / SpongeBob Movie: Sponge on the Run (2020)
Encoded date : UTC 2020-11-06 09:13:17
Writing application : v30.1.0 ('Forever And More') 64-bit
Writing library : libebml v1.3.6 + v1.4.9
Cover : Yes
Attachments : cover.jpg

Video
ID : 1
Format : HEVC
Format/Info : High Efficiency Video Coding
Commercial name : HDR10
Format profile : Main [email protected]@Main
Codec ID : V_MPEGH/ISO/HEVC
Duration : 1 h 31 min
Bit rate : 14.6 Mb/s
Width : 3 840 pixels
Height : 2 160 pixels
Display aspect ratio : 16:9
Frame rate mode : Constant
Frame rate : 23.976 (24000/1001) FPS
Color space : YUV
Chroma subsampling : 4:2:0 (Type 2)
Bit depth : 10 bits
Bits/(Pixel*Frame) : 0.074
Stream size : 9.35 GiB (91%)
Language : English
Default : Yes
Forced : No
Color range : Limited
Color primaries : BT.2020
Transfer characteristics : PQ
Matrix coefficients : BT.2020 non-constant
Mastering display color primaries : Display P3
Mastering display luminance : min: 0.0001 cd/m2, max: 1000 cd/m2
Maximum Content Light Level : 994 cd/m2
Maximum Frame-Average Light Level : 180 cd/m2

Audio #1
ID : 2
Format : E-AC-3
Format/Info : Enhanced AC-3
Commercial name : Dolby Digital Plus
Codec ID : A_EAC3
Duration : 1 h 35 min
Bit rate mode : Constant
Bit rate : 640 kb/s
Channel(s) : 6 channels
Channel layout : L R C LFE Ls Rs
Sampling rate : 48.0 kHz
Frame rate : 31.250 FPS (1536 SPF)
Compression mode : Lossy
Stream size : 437 MiB (4%)
Title : E-, 5.1, 640 Kbps
Language : Ukrainian
Service kind : Complete Main
Default : Yes
Forced : No

Audio #2
ID : 3
Format : E-AC-3 JOC
Format/Info : Enhanced AC-3 with Joint Object Coding
Commercial name : Dolby Digital Plus with Dolby Atmos
Codec ID : A_EAC3
Duration : 1 h 35 min
Bit rate mode : Constant
Bit rate : 768 kb/s
Channel(s) : 6 channels
Channel layout : L R C LFE Ls Rs
Sampling rate : 48.0 kHz
Frame rate : 31.250 FPS (1536 SPF)
Compression mode : Lossy
Stream size : 524 MiB (5%)
Title : E-+Atmos, 5.1, 768 Kbps
Language : English
Service kind : Complete Main
Default : No
Forced : No
Complexity index : 16
Number of dynamic objects : 15
Bed channel count : 1 channel
Bed channel configuration : LFE

Text #1
ID : 4
Format : UTF-8
Codec ID : S_TEXT/UTF8
Codec ID/Info : UTF-8 Plain Text
Duration : 1 h 30 min
Bit rate : 3 b/s
Count of elements : 52
Stream size : 2.41 KiB (0%)
Title : Forced
Language : Ukrainian
Default : Yes
Forced : No

Text #2
ID : 5
Format : UTF-8
Codec ID : S_TEXT/UTF8
Codec ID/Info : UTF-8 Plain Text
Duration : 1 h 30 min
Bit rate : 98 b/s
Count of elements : 1342
Stream size : 65.5 KiB (0%)
Title : Full
Language : Ukrainian
Default : No
Forced : No

Text #3
ID : 6
Format : UTF-8
Codec ID : S_TEXT/UTF8
Codec ID/Info : UTF-8 Plain Text
Duration : 1 h 29 min
Bit rate : 72 b/s
Count of elements : 1665
Stream size : 47.7 KiB (0%)
Title : SDH
Language : English
Default : No
Forced : No
Скріншоти






Джерело:
Особиста оцінка: 0 - не дивився
Увага! Перед завантаженням переконайтесь, що ваш пристрій відтворення (та/або ПЗ) підтримує H.265 (HEVC)


 Трекер:    Зареєстрований   

Завантажити / скачати мультфільм українською



відео для новачків



 Зареєстрований:   2020-11-06 11:30
 Розмір:   10.29 GB 
 Оцінка мультфільму:   8.7/10 (Голосів: 14)
   
Arx1meD_CrackeR 
Частий відвідувач


З нами з: 17.04.13
Востаннє: 03.03.21
Повідомлень: 36

2020-11-07 10:13  
Скажіть це що ?? Той що з нетфлікс ?
SnappyUA 
Новенький


З нами з: 16.08.16
Востаннє: 02.03.21
Повідомлень: 1

2020-11-07 10:58  
Arx1meD_CrackeR
так

Ваш часовий пояс: GMT + 2 Години

Нова тема   Відповісти