Бомж з дробовиком / Hobo with a Shotgun (2011) 1080p H.265 Eng | Sub Ukr/Eng [RUS Transfer]

Нові коментарі

Нова тема   Відповісти
Останній раз роздавалося -Star-Lord- (2020-11-17)
Автор Повідомлення
Anonymous 







2020-11-06 11:30  
Бомж з дробовиком / Hobo with a Shotgun (2011) 1080p H.265 Eng | Sub Ukr/Eng [RUS Transfer]

Бомж з дробовиком / Hobo with a Shotgun (2011) 1080p H.265 Eng | Sub Ukr/Eng [RUS Transfer]


Жанр: бойовик, трилер, кримінал
Країна: США, Канада
Кінокомпанія: Rhombus Media, Whizbang Films, Yer Dead Productions
Режисер: Джейсон Айзенер / Jason Eisener
Актори: Рутгер Гауер, Робб Веллс, Паша Ебрахімі, Моллі Дансворт та інші

Сюжет:
У центрі подій бомж, якому набридло спостерігати за беззаконням, що коїться на вулицях. В один прекрасний момент чаша його терпіння переповнюється, він хапає з вітрини магазину дробовик та йде боротися за справедливість, відстрілюючи бандитів, корумпованих копів, педофілів та інших виродків.

Тривалість: 01:26:00
Якість: [RUS Transfer], (Власний ріп)

Відео:
кодек: H.265 (HEVC)
розмір кадру: 1920 x 796
бітрейт: 13 320 кб/с
бітова глибина: 10 біт

Увага! Перед завантаженням переконайтесь, що ваш пристрій відтворення (та/або ПЗ) підтримує H.265 (HEVC)

Аудіо # 1:
мова: англійська
озвучення: оригінал
кодек: 5.1
бітрейт: 768 кб/с

Субтитри # 1-2: (Forced, Full by -Star-Lord-)
мова: українська
тип: програмні (м'які)
формат: *.srt

Субтитри # 3-4: (Full, SDH)
мова: англійська
тип: програмні (м'які)
формат: *.srt


Інформація про файл
Код:
x265 [info]: frame I:   1438, Avg QP:18.62  kb/s: 34124.60
x265 [info]: frame P:  27425, Avg QP:19.85  kb/s: 21804.40
x265 [info]: frame B:  94862, Avg QP:21.55  kb/s: 10550.20
x265 [info]: Weighted P-Frames: Y:8.1% UV:7.5%
x265 [info]: Weighted B-Frames: Y:7.3% UV:6.3%
x265 [info]: consecutive B-frames: 8.4% 4.1% 7.6% 41.9% 11.2% 23.8% 1.8% 0.8% 0.2% 0.2% 0.0% 0.0%
=====================================================================
General
Unique ID                                : 21354262121805081069868521985003496923 (0x1010AE68C384A4B815854812C75425DB)
Complete name                            : Hobo with a Shotgun (2011) 1080p H.265 [ENG] [Hurtom].
Format                                   :
Format version                           : Version 4
File size                                : 8.47 GiB
Duration                                 : 1 h 26 min
Overall bit rate                         : 14.0 Mb/s
Movie name                               : Бомж з дробовиком / Hobo with a Shotgun (2011) [RUS Transfer]
Encoded date                             : UTC 2020-11-06 09:17:30
Writing application                      : v20.0.0 ('I Am The Sun') 64-bit
Writing library                          : libebml v1.3.5 + v1.4.8
Cover                                    : Yes
Attachments                              : Cover.png

Video
ID                                       : 1
Format                                   : HEVC
Format/Info                              : High Efficiency Video Coding
Format profile                           : Main [email protected]@High
Codec ID                                 : V_MPEGH/ISO/HEVC
Duration                                 : 1 h 26 min
Bit rate                                 : 13.3 Mb/s
Width                                    : 1 920 pixels
Height                                   : 796 pixels
Display aspect ratio                     : 2.40:1
Frame rate mode                          : Constant
Frame rate                               : 23.976 (24000/1001) FPS
Color space                              : YUV
Chroma subsampling                       : 4:2:0
Bit depth                                : 10 bits
Bits/(Pixel*Frame)                       : 0.363
Stream size                              : 8.00 GiB (94%)
Title                                    : Бомж з дробовиком / Hobo with a Shotgun (2011) [RUS Transfer]
Writing library                          : x265 3.4+12-g9103319fc:[Windows][GCC 10.2.0][64 bit] 10bit
Encoding settings                        : cpuid=1111039 / frame-threads=3 / numa-pools=12 / wpp / no-pmode / no-pme / no-psnr / no-ssim / log-level=2 / input-csp=1 / input-res=1920x796 / interlace=0 / total-frames=123725 / level-idc=41 / high-tier=1 / uhd-bd=0 / ref=5 / no-allow-non-conformance / no-repeat-headers / annexb / no-aud / no-hrd / info / hash=0 / no-temporal-layers / open-gop / min-keyint=23 / keyint=240 / gop-lookahead=0 / bframes=11 / b-adapt=2 / b-pyramid / bframe-bias=0 / rc-lookahead=60 / lookahead-slices=0 / scenecut=40 / hist-scenecut=0 / radl=0 / no-splice / no-intra-refresh / ctu=32 / min-cu-size=8 / rect / amp / max-tu-size=32 / tu-inter-depth=4 / tu-intra-depth=4 / limit-tu=0 / rdoq-level=2 / dynamic-rd=0.00 / no-ssim-rd / signhide / tskip / nr-intra=0 / nr-inter=0 / no-constrained-intra / no-strong-intra-smoothing / max-merge=5 / limit-refs=0 / no-limit-modes / me=3 / subme=7 / merange=57 / temporal-mvp / no-frame-dup / no-hme / weightp / weightb / no-analyze-src-pics / deblock=-3:-3 / no-sao / no-sao-non-deblock / rd=6 / selective-sao=0 / no-early-skip / no-rskip / no-fast-intra / no-tskip-fast / no-cu-lossless / no-b-intra / no-splitrd-skip / rdpenalty=0 / psy-rd=2.00 / psy-rdoq=1.00 / no-rd-refine / no-lossless / cbqpoffs=0 / crqpoffs=0 / rc=crf / crf=20.0 / qcomp=0.65 / qpstep=4 / stats-write=0 / stats-read=0 / vbv-maxrate=50000 / vbv-bufsize=50000 / vbv-init=0.9 / crf-max=0.0 / crf-min=0.0 / ipratio=1.40 / pbratio=1.30 / aq-mode=1 / aq-strength=1.00 / no-cutree / zone-count=0 / no-strict-cbr / qg-size=32 / no-rc-grain / qpmax=69 / qpmin=0 / no-const-vbv / sar=1 / overscan=0 / videoformat=5 / range=0 / colorprim=1 / transfer=1 / colormatrix=1 / chromaloc=0 / display-window=0 / cll=0,0 / min-luma=0 / max-luma=1023 / log2-max-poc-lsb=8 / vui-timing-info / vui-hrd-info / slices=1 / no-opt-qp-pps / no-opt-ref-list-length-pps / no-multi-pass-opt-rps / scenecut-bias=0.05 / hist-threshold=0.01 / no-opt-cu-delta-qp / no-aq-motion / no-hdr10 / no-hdr10-opt / no-dhdr10-opt / no-idr-recovery-sei / analysis-reuse-level=0 / analysis-save-reuse-level=0 / analysis-load-reuse-level=0 / scale-factor=0 / refine-intra=0 / refine-inter=0 / refine-mv=1 / refine-ctu-distortion=0 / no-limit-sao / ctu-info=0 / no-lowpass-dct / refine-analysis-type=0 / copy-pic=1 / max-ausize-factor=1.0 / no-dynamic-refine / no-single-sei / no-hevc-aq / no-svt / no-field / qp-adaptation-range=1.00 / no-scenecut-aware-qpconformance-window-offsets / right=0 / bottom=0 / decoder-max-rate=0
Default                                  : Yes
Forced                                   : No
Color range                              : Limited
Color primaries                          : BT.709
Transfer characteristics                 : BT.709
Matrix coefficients                      : BT.709

Audio
ID                                       : 2
Format                                   :
Format/Info                              : Digital Theater Systems
Codec ID                                 : A_DTS
Duration                                 : 1 h 26 min
Bit rate mode                            : Constant
Bit rate                                 : 768 kb/s
Channel(s)                               : 6 channels
Channel layout                           : C L R Ls Rs LFE
Sampling rate                            : 48.0 kHz
Frame rate                               : 93.750 FPS (512 SPF)
Bit depth                                : 24 bits
Compression mode                         : Lossy
Stream size                              : 475 MiB (5%)
Title                                    : / 5.1 Ch / 768 kbps / Original
Language                                 : English
Default                                  : No
Forced                                   : No

Text #1
ID                                       : 3
Format                                   : UTF-8
Codec ID                                 : S_TEXT/UTF8
Codec ID/Info                            : UTF-8 Plain Text
Duration                                 : 1 h 10 min
Bit rate                                 : 1 b/s
Count of elements                        : 14
Stream size                              : 818 Bytes (0%)
Title                                    : Forced
Language                                 : Ukrainian
Default                                  : Yes
Forced                                   : Yes

Text #2
ID                                       : 4
Format                                   : UTF-8
Codec ID                                 : S_TEXT/UTF8
Codec ID/Info                            : UTF-8 Plain Text
Duration                                 : 1 h 20 min
Bit rate                                 : 74 b/s
Count of elements                        : 955
Stream size                              : 44.0 KiB (0%)
Title                                    : Full
Language                                 : Ukrainian
Default                                  : No
Forced                                   : No

Text #3
ID                                       : 5
Format                                   : UTF-8
Codec ID                                 : S_TEXT/UTF8
Codec ID/Info                            : UTF-8 Plain Text
Duration                                 : 1 h 18 min
Bit rate                                 : 46 b/s
Count of elements                        : 964
Stream size                              : 27.1 KiB (0%)
Title                                    : Full
Language                                 : English
Default                                  : No
Forced                                   : No

Text #4
ID                                       : 6
Format                                   : UTF-8
Codec ID                                 : S_TEXT/UTF8
Codec ID/Info                            : UTF-8 Plain Text
Duration                                 : 1 h 25 min
Bit rate                                 : 52 b/s
Count of elements                        : 1201
Stream size                              : 33.1 KiB (0%)
Title                                    : SDH
Language                                 : English
Default                                  : No
Forced                                   : No

Menu
00:00:00.000                             : en:Spare Some Change?
00:08:26.756                             : en:I Am Tired
00:17:20.414                             : en:Lock Him Up
00:20:53.961                             : en:You're So Hot
00:27:15.467                             : en:Back For That $10?
00:36:10.459                             : en:Patents Smile
00:42:20.621                             : en:Grab Your Guns
00:49:43.855                             : en:They're In There!
00:57:59.726                             : en:Hey You
01:06:30.820                             : en:You Got a Match?
01:10:58.045                             : en:Ladie and Gentlemen
01:16:50.188                             : en:Pull My Hair
Світлини





Джерело: &
Особиста оцінка: 10 - без зайвих вагань рекомендую всім!


 Трекер:    Зареєстрований   

Завантажити / скачати фільм українською



відео для новачків



 Зареєстрований:   2020-11-06 11:30
 Розмір:   8.47 GB 
 Оцінка фільму:   10/10 (Голосів: 4)
   
tilda4334 
VIP


З нами з: 15.08.14
Востаннє: 03.12.20
Повідомлень: 1182

2020-11-06 14:34  
Anonymous написано:
Бомж

мда...

Anonymous 







2020-11-06 15:39  
tilda4334 написано:
Бомж

Безхатько не звучить...

leicheman 
Відео Гуртом - фільмокрай
Відео Гуртом - фільмокрай


З нами з: 03.07.14
Востаннє: 04.12.20
Повідомлень: 5705

2020-11-06 16:36  
Anonymous написано:
Безхатько не звучить...

Волоцюга ще можна

lost_in_you 
Свій


З нами з: 17.11.11
Востаннє: 30.11.20
Повідомлень: 115

2020-11-06 19:07  
Anonymous
Цитата:
Безхатько не звучить...
зате БОМЖ (без опрєдєльонного мєста жітєльства) звучить. Геніально
Ваш часовий пояс: GMT + 2 Години

Нова тема   Відповісти