Губка Боб: Втеча Губки / SpongeBob Movie: Sponge on the Run (2020) 720p Ukr/Eng | Sub Ukr/Eng

Нові коментарі

Нова тема   Відповісти
Автор Повідомлення
Anonymous 







2020-11-05 20:37  
Губка Боб: Втеча Губки / SpongeBob Movie: Sponge on the Run (2020) 720p Ukr/Eng | Sub Ukr/Eng

Губка Боб: Втеча Губки / SpongeBob Movie: Sponge on the Run (2020) 720p Ukr/Eng | Sub Ukr/Eng


Жанр: анімація, пригодницький, комедія
Країна: США



Кінокомпанія: Paramount Animation, Nickelodeon Movies, United Plankton Pictures
Режисер: Тім Гілл
Актори: Кіану Рівз, Том Кенні, Нора Лам, Стівен Гілленбур, Снуп Доґ.

Сюжет:
Фільм є приквелом до мультсеріалу. У фільмі буде показано, як Губка Боб зустрів своїх друзів у Таборі Корал. Прийшовши з роботи додому, Губка Боб не знаходить свого улюбленця Гері, бо його вкрав Посейдон і відправив Гері у загублене місто Атлантик-Сіті. Тож Губка Боб та його найкращий друг Патрік мають туди відправитися, щоб врятувати Гері, але Посейдон поставив пастки по дорозі туди.


Тривалість: 01:35:24
Якість:
Відео:
кодек:
розмір кадру: 1280 х 720
бітрейт: 4420 кб/с

Аудіо # 1:
мова: українська
переклад: професійний дубльований | Le Doyen
кодек: E- 5.1
бітрейт: 640 кб/с

Аудіо # 2:
мова: англійська
переклад: оригінал
кодек: E-AC-3 JOC 5.1
бітрейт: 768 кб/с

Субтитри:
мова: українська
тип: програмні (м'які) [форсовані і повні]
формат: *.srt

Субтитри:
мова: англійська
тип: програмні (м'які)
формат: *.srt
Info
Format :
Format version : Version 4
File size : 3.77 GiB
Duration : 1 h 35 min
Overall bit rate mode : Variable
Overall bit rate : 5 662 kb/s
Encoded date : UTC 2020-11-05 18:07:05
Writing application : v47.0.0 ('Black Flag') 64-bit
Writing library : libebml v1.3.10 + v1.5.2
Cover : Yes
Attachments : cover.jpg

Video
ID : 1
Format : AVC
Format/Info : Advanced Video Codec
Format profile : [email protected]
Format settings : CABAC / 3 Ref Frames
Format settings, CABAC : Yes
Format settings, Reference fra : 3 frames
Codec ID : V_MPEG4/ISO/AVC
Duration : 1 h 35 min
Bit rate mode : Variable
Bit rate : 4 420 kb/s
Maximum bit rate : 6 630 kb/s
Width : 1 280 pixels
Height : 720 pixels
Display aspect ratio : 16:9
Frame rate mode : Constant
Frame rate : 23.976 (24000/1001) FPS
Color space : YUV
Chroma subsampling : 4:2:0
Bit depth : 8 bits
Scan type : Progressive
Bits/(Pixel*Frame) : 0.200
Stream size : 2.83 GiB (75%)
Writing library : core 148 r2722 1b0121b
Encoding settings : cabac=1 / ref=3 / deblock=1:0:0 / analyse=0x1:0x111 / me=umh / subme=10 / psy=1 / psy_rd=1.00:0.00 / mixed_ref=1 / me_range=24 / chroma_me=1 / trellis=2 / 8x8dct=0 / cqm=0 / deadzone=21,11 / fast_pskip=1 / chroma_qp_offset=-2 / threads=8 / lookahead_threads=1 / sliced_threads=0 / nr=0 / decimate=1 / interlaced=0 / bluray_compat=0 / stitchable=1 / constrained_intra=0 / bframes=2 / b_pyramid=0 / b_adapt=2 / b_bias=0 / direct=3 / weightb=1 / open_gop=0 / weightp=2 / keyint=250 / keyint_min=23 / scenecut=0 / intra_refresh=0 / rc_lookahead=48 / rc=2pass / mbtree=1 / bitrate=4420 / ratetol=1.0 / qcomp=0.50 / qpmin=6 / qpmax=51 / qpstep=4 / cplxblur=20.0 / qblur=0.5 / vbv_maxrate=6630 / vbv_bufsize=8840 / nal_hrd=vbr / filler=0 / ip_ratio=1.40 / aq=1:1.00
Language : English
Default : Yes
Forced : No

Audio #1
ID : 2
Format : E-AC-3
Format/Info : Enhanced AC-3
Commercial name : Dolby Digital Plus
Codec ID : A_EAC3
Duration : 1 h 35 min
Bit rate mode : Constant
Bit rate : 640 kb/s
Channel(s) : 6 channels
Channel layout : L R C LFE Ls Rs
Sampling rate : 48.0 kHz
Frame rate : 31.250 FPS (1536 SPF)
Compression mode : Lossy
Stream size : 437 MiB (11%)
Title : DUB
Language : Ukrainian
Service kind : Complete Main
Default : Yes
Forced : No

Audio #2
ID : 3
Format : E-AC-3 JOC
Format/Info : Enhanced AC-3 with Joint Object Coding
Commercial name : Dolby Digital Plus with Dolby Atmos
Codec ID : A_EAC3
Duration : 1 h 35 min
Bit rate mode : Constant
Bit rate : 768 kb/s
Channel(s) : 6 channels
Channel layout : L R C LFE Ls Rs
Sampling rate : 48.0 kHz
Frame rate : 31.250 FPS (1536 SPF)
Compression mode : Lossy
Stream size : 524 MiB (14%)
Language : English
Service kind : Complete Main
Default : No
Forced : No
Complexity index : 16
Number of dynamic objects : 15
Bed channel count : 1 channel
Bed channel configuration : LFE

Text #1
ID : 4
Format : UTF-8
Codec ID : S_TEXT/UTF8
Codec ID/Info : UTF-8 Plain Text
Duration : 1 h 30 min
Bit rate : 3 b/s
Count of elements : 52
Stream size : 2.41 KiB (0%)
Title : Forced
Language : Ukrainian
Default : Yes
Forced : No

Text #2
ID : 5
Format : UTF-8
Codec ID : S_TEXT/UTF8
Codec ID/Info : UTF-8 Plain Text
Duration : 1 h 30 min
Bit rate : 98 b/s
Count of elements : 1342
Stream size : 65.5 KiB (0%)
Language : Ukrainian
Default : No
Forced : No

Text #3
ID : 6
Format : UTF-8
Codec ID : S_TEXT/UTF8
Codec ID/Info : UTF-8 Plain Text
Duration : 1 h 29 min
Bit rate : 72 b/s
Count of elements : 1665
Stream size : 47.7 KiB (0%)
Language : English
Default : No
Forced : No
Скріншоти










Джерело:
Особиста оцінка: 8 - мені сподобалося


 Трекер:    Зареєстрований   

Завантажити / скачати мультфільм українською



відео для новачків



 Зареєстрований:   2020-11-05 20:37
 Розмір:   3.77 GB 
 Оцінка мультфільму:   8.3/10 (Голосів: 25)
   
antik_2008 
Релізер і модератор відео


З нами з: 20.10.08
Востаннє: 01.03.21
Повідомлень: 4693

2020-11-05 23:33  
Дякую
У вас якість

Зробіть тоді вже і 2160p вже вийшов.

Anonymous 







2020-11-06 00:12  
antik_2008 написано:

Дякую
У вас якість

Зробіть тоді вже і 2160p вже вийшов.


Замінив. Та вже місця нема, я і ці тільки кілька днів роздаю і видаляю(

kpomed 
Частий відвідувач


З нами з: 12.10.13
Востаннє: 25.02.21
Повідомлень: 45

2020-11-10 20:20  
Дякую за мульт.
Чим можна перекодувати звук в фільмі з єАс на Ас ? Дякую

Electroz 
Відео Гуртом - підтримка та поширення
Відео Гуртом - підтримка та поширення


З нами з: 18.09.14
Востаннє: 01.03.21
Повідомлень: 4330

2020-11-10 20:23  
kpomed написано:
Чим можна перекодувати звук в фільмі з єАс на Ас ?

ffmpeg

lolkek2 
Новенький


З нами з: 05.11.20
Востаннє: 29.11.20
Повідомлень: 1

2020-11-11 17:38  
Electroz написано:
Чим можна перекодувати звук в фільмі з єАс на Ас ?

Чимось можна

Ваш часовий пояс: GMT + 2 Години

Нова тема   Відповісти