Бомж з дробовиком / Hobo with a Shotgun (2011) Remux 1080p Eng | Sub Ukr/Eng [RUS Transfer]

Нові коментарі

Нова тема   Відповісти
Автор Повідомлення
Anonymous 







2020-11-05 01:44  
Бомж з дробовиком / Hobo with a Shotgun (2011) Remux 1080p Eng | Sub Ukr/Eng [RUS Transfer]

Бомж з дробовиком / Hobo with a Shotgun (2011) Remux 1080p Eng | Sub Ukr/Eng [RUS Transfer]


Жанр: бойовик, трилер, кримінал
Країна: США, Канада
Кінокомпанія: Rhombus Media, Whizbang Films, Yer Dead Productions
Режисер: Джейсон Айзенер / Jason Eisener
Актори: Рутгер Гауер, Робб Веллс, Паша Ебрахімі, Моллі Дансворт та інші

Сюжет:
У центрі подій бомж, якому набридло спостерігати за беззаконням, що коїться на вулицях. В один прекрасний момент чаша його терпіння переповнюється, він хапає з вітрини магазину дробовик та йде боротися за справедливість, відстрілюючи бандитів, корумпованих копів, педофілів та інших виродків.

Тривалість: 01:26:00
Якість: Remux [RUS Transfer]

Відео:
кодек:
розмір кадру: 1920 x 1080
бітрейт: 20 001 кб/с

Аудіо # 1:
мова: англійська
озвучення: оригінал
кодек: -HD MA 5.1
бітрейт: 4197 кб/с

Субтитри # 1-2: (Forced, Full by -Star-Lord-)
мова: українська
тип: програмні (м'які)
формат: *.srt
примітка: присутній мат

Субтитри # 3-4: (Full, SDH)
мова: англійська
тип: програмні (м'які)
формат: *.srt


Інформація про файл
Код:
General
Unique ID                                : 230518477391720610739273132445107648284 (0xAD6C3E6BED2AB751C02C7C0C1632771C)
Complete name                            : Hobo with a Shotgun (2011) [RUS Transfer] Remux 1080p [ENG] [Hurtom].
Format                                   :
Format version                           : Version 4
File size                                : 14.6 GiB
Duration                                 : 1 h 26 min
Overall bit rate mode                    : Variable
Overall bit rate                         : 24.1 Mb/s
Movie name                               : Бомж з дробовиком / Hobo with a Shotgun (2011) [RUS Transfer]
Encoded date                             : UTC 2020-11-04 23:26:14
Writing application                      : v20.0.0 ('I Am The Sun') 64-bit
Writing library                          : libebml v1.3.5 + v1.4.8
Cover                                    : Yes
Attachments                              : Cover.png

Video
ID                                       : 1
Format                                   : AVC
Format/Info                              : Advanced Video Codec
Format profile                           : [email protected]
Format settings                          : CABAC / 4 Ref Frames
Format settings, CABAC                   : Yes
Format settings, Reference frames        : 4 frames
Codec ID                                 : V_MPEG4/ISO/AVC
Duration                                 : 1 h 26 min
Bit rate mode                            : Variable
Bit rate                                 : 20.0 Mb/s
Maximum bit rate                         : 30.0 Mb/s
Width                                    : 1 920 pixels
Height                                   : 1 080 pixels
Display aspect ratio                     : 16:9
Frame rate mode                          : Constant
Frame rate                               : 23.976 (24000/1001) FPS
Standard                                 : NTSC
Color space                              : YUV
Chroma subsampling                       : 4:2:0
Bit depth                                : 8 bits
Scan type                                : Progressive
Bits/(Pixel*Frame)                       : 0.402
Stream size                              : 12.0 GiB (83%)
Title                                    : Бомж з дробовиком / Hobo with a Shotgun (2011) [RUS Transfer]
Language                                 : English
Default                                  : No
Forced                                   : No
Color range                              : Limited
Color primaries                          : BT.709
Transfer characteristics                 : BT.709
Matrix coefficients                      : BT.709

Audio
ID                                       : 2
Format                                   : XLL
Format/Info                              : Digital Theater Systems
Commercial name                          : -HD Master Audio
Codec ID                                 : A_DTS
Duration                                 : 1 h 26 min
Bit rate mode                            : Variable
Bit rate                                 : 4 193 kb/s
Channel(s)                               : 6 channels
Channel layout                           : C L R Ls Rs LFE
Sampling rate                            : 48.0 kHz
Frame rate                               : 93.750 FPS (512 SPF)
Bit depth                                : 24 bits
Compression mode                         : Lossless
Stream size                              : 2.53 GiB (17%)
Title                                    : -HD MA / 5.1 Ch / 4193 kbps / Original
Language                                 : English
Default                                  : No
Forced                                   : No

Text #1
ID                                       : 3
Format                                   : UTF-8
Codec ID                                 : S_TEXT/UTF8
Codec ID/Info                            : UTF-8 Plain Text
Duration                                 : 1 h 10 min
Bit rate                                 : 1 b/s
Count of elements                        : 14
Stream size                              : 818 Bytes (0%)
Title                                    : Forced
Language                                 : Ukrainian
Default                                  : Yes
Forced                                   : Yes

Text #2
ID                                       : 4
Format                                   : UTF-8
Codec ID                                 : S_TEXT/UTF8
Codec ID/Info                            : UTF-8 Plain Text
Duration                                 : 1 h 20 min
Bit rate                                 : 74 b/s
Count of elements                        : 955
Stream size                              : 44.0 KiB (0%)
Title                                    : Full
Language                                 : Ukrainian
Default                                  : No
Forced                                   : No

Text #3
ID                                       : 5
Format                                   : UTF-8
Codec ID                                 : S_TEXT/UTF8
Codec ID/Info                            : UTF-8 Plain Text
Duration                                 : 1 h 18 min
Bit rate                                 : 46 b/s
Count of elements                        : 964
Stream size                              : 27.1 KiB (0%)
Title                                    : Full
Language                                 : English
Default                                  : No
Forced                                   : No

Text #4
ID                                       : 6
Format                                   : UTF-8
Codec ID                                 : S_TEXT/UTF8
Codec ID/Info                            : UTF-8 Plain Text
Duration                                 : 1 h 25 min
Bit rate                                 : 52 b/s
Count of elements                        : 1201
Stream size                              : 33.1 KiB (0%)
Title                                    : SDH
Language                                 : English
Default                                  : No
Forced                                   : No

Menu
00:00:00.000                             : en:Spare Some Change?
00:08:26.756                             : en:I Am Tired
00:17:20.414                             : en:Lock Him Up
00:20:53.961                             : en:You're So Hot
00:27:15.467                             : en:Back For That $10?
00:36:10.459                             : en:Patents Smile
00:42:20.621                             : en:Grab Your Guns
00:49:43.855                             : en:They're In There!
00:57:59.726                             : en:Hey You
01:06:30.820                             : en:You Got a Match?
01:10:58.045                             : en:Ladie and Gentlemen
01:16:50.188                             : en:Pull My Hair
Світлини




Джерело: &
Особиста оцінка: 10 - без зайвих вагань рекомендую всім!


Золотий реліз (завантажене не впливає на рейтинг)
 Трекер:    Зареєстрований   

Завантажити / скачати фільм українською



відео для новачків



 Зареєстрований:   2020-11-05 01:45
 Розмір:   14.55 GB 
 Оцінка фільму:   6.4/10 (Голосів: 5)
   
igor911 
Модератор відео


З нами з: 18.01.08
Востаннє: 01.12.20
Повідомлень: 15083

2020-11-05 08:17  
Цитата:
Субтитри # 1-2: (Forced, Full)
мова: українська

треба вказати джерело/автора перекладу/з якої мови переклад

постер має бути до 200 кб (макс. 400 кб)

bot 
робот


З нами з: 30.09.07
Востаннє: 26.05.05
Повідомлень: 26425

2020-11-05 08:17  
Тему перенесено з Фільми в HD до форуму Фільми


igor911

Ваш часовий пояс: GMT + 2 Години

Нова тема   Відповісти