Шукачі правди (Сезон 1) / Truth Seekers (Season 1) (2020) 1080p Ukr/Eng | sub Multi

Нові коментарі

Нова тема   Відповісти
Автор Повідомлення
Anonymous 







2020-11-02 01:28  
Шукачі правди (Сезон 1) / Truth Seekers (Season 1) (2020) 1080p Ukr/Eng | sub Multi

Шукачі правди (Сезон 1) / Truth Seekers (Season 1) (2020) 1080p Ukr/Eng | sub Multi


Жанр: комедія, жахи
Країна: Велика Британія, США



Кінокомпанія: Amazon Studios, Stolen Picture
Режисер: Джим Філд Сміт
Актори: Нік Фрост, Саймон Пеґґ, Самсон Кае, Емма Д’Арсі, Малкольм МакДавелл, С'юзан Вокома, Джуліан Берретт, Келлі Макдональд, Кевін Елдон, Нат Саундерс

Сюжет:
Любителі всього паранормального подорожують по Великій Британії в пошуках свідчень існування привидів. Вони регулярно відвідують старі церкви чи занедбані госпіталі, де за допомогою саморобного обладнання вишукують сліди чогось надприродного і транслюють свої пригоди в мережі. Одного разу вони випадково натикаються на змову, здатну знищити все людство.


Тривалість: 1 серія: ~ 30 хв. (цілком серій: 8)
Перелік серій
1. The Haunting of Connelly’s Nook
2. The Watcher on the Water
3. The Girl with All the Ghosts
4. The Incident at CovColCosCon
5. The Ghost of the Beast of Bodmin
6. The Revenge of the Chichester Widow
7. The Hinckley Boy
8. The Shadow of the Moon
Якість:
Відео:
кодек:
розмір кадру: 1920 x 1080
бітрейт: 5215 кб/с

Аудіо # 1:
мова: українська
переклад: багатоголосий закадровий
кодек: 5.1
бітрейт: 384 кб/с

Аудіо # 2:
мова: англійська
переклад: оригінал
кодек: 5.1
бітрейт: 640 кб/с

Джерело озвучення:
DniproFilm

Субтитри:
мова: українська [Forced]
тип: програмні (м'які)
формат: *.srt

Субтитри:
мова: англійська [SDH], арабська, німецька, іспанська (лат.), іспанська, гінді, італійська, японська, корейська, нідерландська, польська, португальська, турецька
тип: програмні (м'які)
формат: *.srt
Info
Код:
General
Unique ID                                : 209146245130819980161170341655276496390 (0x9D581A041E9D5A57F0228164E2992606)
Complete name                            : Truth Seekers S01E01 (2020) 1080p [Ukr_Eng] [Hurtom].
Format                                   :
Format version                           : Version 4
File size                                : 1.25 GiB
Duration                                 : 28 min 45 s
Overall bit rate                         : 6 244 kb/s
Movie name                               : Шукачі правди (Сезон 1, серія 1) (2020)
Encoded date                             : UTC 2020-11-01 21:25:36
Writing application                      : v50.0.0 ('Awakenings') 64-bit
Writing library                          : libebml v1.4.0 + v1.6.2
Cover                                    : Yes
Attachments                              : cover.jpg

Video
ID                                       : 1
Format                                   : AVC
Format/Info                              : Advanced Video Codec
Format profile                           : [email protected]
Format settings                          : CABAC / 4 Ref Frames
Format settings, CABAC                   : Yes
Format settings, Reference frames        : 4 frames
Codec ID                                 : V_MPEG4/ISO/AVC
Duration                                 : 28 min 45 s
Bit rate mode                            : Constant
Bit rate                                 : 5 215 kb/s
Nominal bit rate                         : 10 000 kb/s
Width                                    : 1 920 pixels
Height                                   : 1 080 pixels
Display aspect ratio                     : 16:9
Frame rate mode                          : Constant
Frame rate                               : 23.976 (24000/1001) FPS
Color space                              : YUV
Chroma subsampling                       : 4:2:0
Bit depth                                : 8 bits
Scan type                                : Progressive
Bits/(Pixel*Frame)                       : 0.105
Stream size                              : 1.05 GiB (84%)
Default                                  : Yes
Forced                                   : No
Color range                              : Limited
Color primaries                          : BT.709
Transfer characteristics                 : BT.709
Matrix coefficients                      : BT.709

Audio #1
ID                                       : 2
Format                                   : AC-3
Format/Info                              : Audio Coding 3
Commercial name                          : Dolby Digital
Codec ID                                 : A_AC3
Duration                                 : 28 min 45 s
Bit rate mode                            : Constant
Bit rate                                 : 384 kb/s
Channel(s)                               : 6 channels
Channel layout                           : L R C LFE Ls Rs
Sampling rate                            : 48.0 kHz
Frame rate                               : 31.250 FPS (1536 SPF)
Compression mode                         : Lossy
Stream size                              : 79.0 MiB (6%)
Language                                 : Ukrainian
Service kind                             : Complete Main
Default                                  : Yes
Forced                                   : Yes

Audio #2
ID                                       : 3
Format                                   : E-AC-3
Format/Info                              : Enhanced AC-3
Commercial name                          : Dolby Digital Plus
Codec ID                                 : A_EAC3
Duration                                 : 28 min 45 s
Bit rate mode                            : Constant
Bit rate                                 : 640 kb/s
Channel(s)                               : 6 channels
Channel layout                           : L R C LFE Ls Rs
Sampling rate                            : 48.0 kHz
Frame rate                               : 31.250 FPS (1536 SPF)
Compression mode                         : Lossy
Stream size                              : 132 MiB (10%)
Language                                 : English
Service kind                             : Complete Main
Default                                  : No
Forced                                   : No

Text #1
ID                                       : 4
Format                                   : UTF-8
Codec ID                                 : S_TEXT/UTF8
Codec ID/Info                            : UTF-8 Plain Text
Duration                                 : 11 min 44 s
Bit rate                                 : 2 b/s
Count of elements                        : 6
Stream size                              : 231 Bytes (0%)
Title                                    : Forced
Language                                 : Ukrainian
Default                                  : Yes
Forced                                   : Yes

Text #2
ID                                       : 5
Format                                   : UTF-8
Codec ID                                 : S_TEXT/UTF8
Codec ID/Info                            : UTF-8 Plain Text
Duration                                 : 27 min 18 s
Bit rate                                 : 73 b/s
Count of elements                        : 511
Stream size                              : 14.6 KiB (0%)
Title                                    : SDH
Language                                 : English
Default                                  : No
Forced                                   : No

Text #3
ID                                       : 6
Format                                   : UTF-8
Codec ID                                 : S_TEXT/UTF8
Codec ID/Info                            : UTF-8 Plain Text
Duration                                 : 28 min 26 s
Bit rate                                 : 91 b/s
Count of elements                        : 405
Stream size                              : 19.1 KiB (0%)
Language                                 : Arabic
Default                                  : No
Forced                                   : No

Text #4
ID                                       : 7
Format                                   : UTF-8
Codec ID                                 : S_TEXT/UTF8
Codec ID/Info                            : UTF-8 Plain Text
Duration                                 : 28 min 26 s
Bit rate                                 : 57 b/s
Count of elements                        : 401
Stream size                              : 12.1 KiB (0%)
Language                                 : German
Default                                  : No
Forced                                   : No

Text #5
ID                                       : 8
Format                                   : UTF-8
Codec ID                                 : S_TEXT/UTF8
Codec ID/Info                            : UTF-8 Plain Text
Duration                                 : 28 min 26 s
Bit rate                                 : 58 b/s
Count of elements                        : 402
Stream size                              : 12.1 KiB (0%)
Title                                    : Latinoamérica
Language                                 : Spanish
Default                                  : No
Forced                                   : No

Text #6
ID                                       : 9
Format                                   : UTF-8
Codec ID                                 : S_TEXT/UTF8
Codec ID/Info                            : UTF-8 Plain Text
Duration                                 : 28 min 26 s
Bit rate                                 : 60 b/s
Count of elements                        : 404
Stream size                              : 12.5 KiB (0%)
Title                                    : España
Language                                 : Spanish
Default                                  : No
Forced                                   : No

Text #7
ID                                       : 10
Format                                   : UTF-8
Codec ID                                 : S_TEXT/UTF8
Codec ID/Info                            : UTF-8 Plain Text
Duration                                 : 28 min 26 s
Bit rate                                 : 61 b/s
Count of elements                        : 387
Stream size                              : 12.8 KiB (0%)
Language                                 : French
Default                                  : No
Forced                                   : No

Text #8
ID                                       : 11
Format                                   : UTF-8
Codec ID                                 : S_TEXT/UTF8
Codec ID/Info                            : UTF-8 Plain Text
Duration                                 : 27 min 9 s
Bit rate                                 : 153 b/s
Count of elements                        : 405
Stream size                              : 30.6 KiB (0%)
Language                                 : Hindi
Default                                  : No
Forced                                   : No

Text #9
ID                                       : 12
Format                                   : UTF-8
Codec ID                                 : S_TEXT/UTF8
Codec ID/Info                            : UTF-8 Plain Text
Duration                                 : 28 min 26 s
Bit rate                                 : 61 b/s
Count of elements                        : 402
Stream size                              : 12.8 KiB (0%)
Language                                 : Italian
Default                                  : No
Forced                                   : No

Text #10
ID                                       : 13
Format                                   : UTF-8
Codec ID                                 : S_TEXT/UTF8
Codec ID/Info                            : UTF-8 Plain Text
Duration                                 : 28 min 1 s
Bit rate                                 : 48 b/s
Count of elements                        : 428
Stream size                              : 9.97 KiB (0%)
Language                                 : Japanese
Default                                  : No
Forced                                   : No

Text #11
ID                                       : 14
Format                                   : UTF-8
Codec ID                                 : S_TEXT/UTF8
Codec ID/Info                            : UTF-8 Plain Text
Duration                                 : 28 min 26 s
Bit rate                                 : 63 b/s
Count of elements                        : 406
Stream size                              : 13.1 KiB (0%)
Language                                 : Korean
Default                                  : No
Forced                                   : No

Text #12
ID                                       : 15
Format                                   : UTF-8
Codec ID                                 : S_TEXT/UTF8
Codec ID/Info                            : UTF-8 Plain Text
Duration                                 : 28 min 26 s
Bit rate                                 : 57 b/s
Count of elements                        : 401
Stream size                              : 12.1 KiB (0%)
Language                                 : Dutch
Default                                  : No
Forced                                   : No

Text #13
ID                                       : 16
Format                                   : UTF-8
Codec ID                                 : S_TEXT/UTF8
Codec ID/Info                            : UTF-8 Plain Text
Duration                                 : 27 min 9 s
Bit rate                                 : 59 b/s
Count of elements                        : 400
Stream size                              : 11.8 KiB (0%)
Language                                 : Polish
Default                                  : No
Forced                                   : No

Text #14
ID                                       : 17
Format                                   : UTF-8
Codec ID                                 : S_TEXT/UTF8
Codec ID/Info                            : UTF-8 Plain Text
Duration                                 : 28 min 26 s
Bit rate                                 : 60 b/s
Count of elements                        : 403
Stream size                              : 12.6 KiB (0%)
Language                                 : Portuguese
Default                                  : No
Forced                                   : No

Text #15
ID                                       : 18
Format                                   : UTF-8
Codec ID                                 : S_TEXT/UTF8
Codec ID/Info                            : UTF-8 Plain Text
Duration                                 : 28 min 26 s
Bit rate                                 : 59 b/s
Count of elements                        : 401
Stream size                              : 12.5 KiB (0%)
Language                                 : Turkish
Default                                  : No
Forced                                   : No

Menu
00:00:00.000                             : en:Amazon Original
00:00:05.000                             : en:Fire
00:00:52.000                             : en:Awake at the hospital
00:02:23.000                             : en:Title Sequence
00:02:31.000                             : en:Home life
00:04:59.000                             : en:A new work opportunity
00:06:30.000                             : en:Training the new guy
00:14:27.000                             : en:Elton at home
00:15:40.000                             : en:Late night call
00:16:19.000                             : en:Strange things at the Connelly house
00:25:19.000                             : en:Trick of the light
00:27:21.000                             : en:End Credits

Скріншоти


Джерело:


Авторський реліз (завантажувати можна без реєстрації)
 Трекер:    Зареєстрований   

Завантажити / скачати серіал українською



відео для новачків



 Зареєстрований:   2020-11-02 01:28
 Розмір:   10.54 GB 
 Оцінка серіалу:   9.3/10 (Голосів: 10)
   
doslis 
Свій


З нами з: 15.02.16
Востаннє: 05.12.20
Повідомлень: 67

2020-11-06 18:48  
такого посередньої якості продукту від цього акторського дуета не очікував. розачарований.
Ваш часовий пояс: GMT + 2 Години

Нова тема   Відповісти