Шерлок (Сезони 1-4) + Шерлок: Бридка наречена / Sherlock (Seasons 1-4 ) + Sherlock: The Abominable Bride (2010-2017) H.265 1080p Ukr/Eng | Sub Ukr/Eng

Нові коментарі

Нова тема   Відповісти
Автор Повідомлення
Argentum 
VIP


З нами з: 25.09.11
Востаннє: 29.11.20
Повідомлень: 262

2020-11-01 19:14  
Шерлок (Сезони 1-4) + Шерлок: Бридка наречена / Sherlock (Seasons 1-4 ) + Sherlock: The Abominable Bride (2010-2017) H.265 1080p Ukr/Eng | Sub Ukr/Eng

Шерлок (Сезони 1-4) + Шерлок: Бридка наречена / Sherlock (Seasons 1-4 ) + Sherlock: The Abominable Bride (2010-2017) H.265 1080p Ukr/Eng | Sub Ukr/Eng


Жанр: детектив
Країна: Велика Британія



Кінокомпанія: BBC
Режисер: Юрос Лін, Пол Мак-Ґіґан, Дуґлас Маккіннон, Марк Ґетісс, Стівен Моффат
Актори: Бенедикт Камбербетч, Мартін Фріман, Уна Стаббс, Лу Брілі, Руперт Грейвс, Зої Телфорд, Вінетт Робінсон, Джемма Чан, Джині Спарк та інші

Сюжет:
2010 рік. Військовий лікар Джон Ватсон повертається до Лондона після служби в Афганістані. Він став інвалідом після отриманого поранення і абсолютно не уявляє, як прожити на військову пенсію, а тим паче орендувати житло. Приятель радить Джону розділити витрати з оренди квартири з кимось іще. Він зводить його з ексцентричним приватним детективом на ім'я Шерлок, який грає на скрипці і може розповісти про співрозмовника все після двох хвилин спілкування...


Тривалість: 1 серія: 01:30:00 (цілком серій: 13)
Перелік серій
Season 1:
1x01. A Study in Pink
1x02. The Blind Banker
1x03. The Great Game

Season 2:
2x01. A Scandal in Belgravia
2x02. The Hounds of Baskerville
2x03. The Reichenbach Fall

Season 3:
3x01. The Empty Hearse
3x02. The Sign of Three
3x03. His Last Vow

Special Episode: The Abominable Bride

Season 4:
4x01. The Six Thatchers
4x02. The Lying Detective
4x03. The Final Problem
Якість:
Відео:
кодек: H.265
розмір кадру: 1920 х 1080
бітрейт: ~10000 кб/с

Аудіо # 1:
мова: українська
переклад: професійний дубльований
кодек: 2.0
бітрейт: 256* - 192 кб/с
* - сезони 1-3

Аудіо # 2: *
мова: українська
переклад: багатоголосий закадровий
кодек: 5.1
бітрейт: 384 кб/с
* - епізоди 1.1 - 2.2

Аудіо # 3:
мова: англійська
переклад: оригінал
кодек: 5.1
бітрейт: 448 кб/с

Субтитри 1-2:
мова: українська (форсовані*, повні**)
тип: програмні (м'які)
формат: *.srt
* - епізоди 3.1, 3.2, 3.3, 4.1
** - епізоди 2.1, 2.2, 2.3,

Субтитри 3:
мова: англійська
тип: програмні (м'які)
формат: *.srt
Info
General
Unique ID : 166736637616879736441174150331505155334 (0x7D704EEE24B2C6E5570220A47D259D06)
Complete name : Sherlock.S01E03..1080p.H265.Ukr.Eng.Hurtom.
Format :
Format version : Version 4
File size : 7.55 GiB
Duration : 1 h 29 min
Overall bit rate : 12.1 Mb/s
Movie name : 1x03. The Great Game
Encoded date : UTC 2020-11-01 10:53:17
Writing application : v51.0.0 ('I Wish') 64-bit
Writing library : libebml v1.4.0 + v1.6.2

Video
ID : 1
Format : HEVC
Format/Info : High Efficiency Video Coding
Format profile : Main [email protected]@High
Codec ID : V_MPEGH/ISO/HEVC
Duration : 1 h 29 min
Bit rate : 10.9 Mb/s
Width : 1 920 pixels
Height : 1 080 pixels
Display aspect ratio : 16:9
Frame rate mode : Constant
Frame rate : 25.000 FPS
Color space : YUV
Chroma subsampling : 4:2:0
Bit depth : 10 bits
Bits/(Pixel*Frame) : 0.211
Stream size : 6.83 GiB (90%)
Title : HEVC 1920*1080 @ 10.9 Mb/s
Writing library : x265 3.2.1+1-b5c86a64bbbe:[Linux][GCC 9.2.0][64 bit] 10bit
Encoding settings : cpuid=1111039 / frame-threads=3 / wpp / no-pmode / no-pme / no-psnr / no-ssim / log-level=2 / input-csp=1 / input-res=1920x1080 / interlace=0 / total-frames=0 / level-idc=41 / high-tier=1 / uhd-bd=0 / ref=5 / no-allow-non-conformance / no-repeat-headers / annexb / no-aud / no-hrd / info / hash=0 / no-temporal-layers / open-gop / min-keyint=25 / keyint=250 / gop-lookahead=0 / bframes=8 / b-adapt=2 / b-pyramid / bframe-bias=0 / rc-lookahead=60 / lookahead-slices=0 / scenecut=40 / radl=0 / no-splice / no-intra-refresh / ctu=64 / min-cu-size=8 / rect / amp / max-tu-size=32 / tu-inter-depth=4 / tu-intra-depth=4 / limit-tu=4 / rdoq-level=2 / dynamic-rd=0,00 / no-ssim-rd / signhide / no-tskip / nr-intra=0 / nr-inter=0 / no-constrained-intra / no-strong-intra-smoothing / max-merge=4 / limit-refs=1 / limit-modes / me=3 / subme=7 / merange=57 / temporal-mvp / no-hme / weightp / weightb / no-analyze-src-pics / deblock=-3:-3 / no-sao / no-sao-non-deblock / rd=4 / selective-sao=0 / no-early-skip / rskip / no-fast-intra / no-tskip-fast / no-cu-lossless / b-intra / no-splitrd-skip / rdpenalty=0 / psy-rd=2,00 / psy-rdoq=1,00 / no-rd-refine / no-lossless / cbqpoffs=0 / crqpoffs=0 / rc=crf / crf=18,0 / qcomp=0,60 / qpstep=4 / stats-write=0 / stats-read=0 / vbv-maxrate=50000 / vbv-bufsize=50000 / vbv-init=0,9 / crf-max=0,0 / crf-min=0,0 / ipratio=1,40 / pbratio=1,30 / aq-mode=2 / aq-strength=1,00 / cutree / zone-count=0 / no-strict-cbr / qg-size=32 / no-rc-grain / qpmax=69 / qpmin=0 / no-const-vbv / sar=1 / overscan=0 / videoformat=5 / range=0 / colorprim=1 / transfer=1 / colormatrix=1 / chromaloc=0 / display-window=0 / cll=0,0 / min-luma=0 / max-luma=1023 / log2-max-poc-lsb=8 / vui-timing-info / vui-hrd-info / slices=1 / no-opt-qp-pps / no-opt-ref-list-length-pps / no-multi-pass-opt-rps / scenecut-bias=0,05 / no-opt-cu-delta-qp / no-aq-motion / no-hdr / no-hdr-opt / no-dhdr10-opt / no-idr-recovery-sei / analysis-reuse-level=5 / scale-factor=0 / refine-intra=0 / refine-inter=0 / refine-mv=1 / refine-ctu-distortion=0 / no-limit-sao / ctu-info=0 / no-lowpass-dct / refine-analysis-type=0 / copy-pic=1 / max-ausize-factor=1,0 / no-dynamic-refine / no-single-sei / no-hevc-aq / no-svt / no-field / qp-adaptation-range=1,00
Language : Multiple languages
Default : Yes
Forced : Yes
Color range : Limited
Color primaries : BT.709
Transfer characteristics : BT.709
Matrix coefficients : BT.709

Audio #1
ID : 2
Format : AC-3
Format/Info : Audio Coding 3
Commercial name : Dolby Digital
Codec ID : A_AC3
Duration : 1 h 29 min
Bit rate mode : Constant
Bit rate : 256 kb/s
Channel(s) : 2 channels
Channel layout : L R
Sampling rate : 48.0 kHz
Frame rate : 31.250 FPS (1536 SPF)
Compression mode : Lossy
Stream size : 164 MiB (2%)
Title : AC-3 2.0 @ 256 kb/s # 1+1
Language : Ukrainian
Service kind : Complete Main
Default : Yes
Forced : Yes

Audio #2
ID : 3
Format : AC-3
Format/Info : Audio Coding 3
Commercial name : Dolby Digital
Codec ID : A_AC3
Duration : 1 h 29 min
Bit rate mode : Constant
Bit rate : 448 kb/s
Channel(s) : 6 channels
Channel layout : L R C LFE Ls Rs
Sampling rate : 48.0 kHz
Frame rate : 31.250 FPS (1536 SPF)
Compression mode : Lossy
Stream size : 286 MiB (4%)
Title : AC-3 5.1 @ 448 kb/s #Baibak&Ko
Language : Ukrainian
Service kind : Complete Main
Default : No
Forced : No

Audio #3
ID : 4
Format : AC-3
Format/Info : Audio Coding 3
Commercial name : Dolby Digital
Codec ID : A_AC3
Duration : 1 h 29 min
Bit rate mode : Constant
Bit rate : 448 kb/s
Channel(s) : 6 channels
Channel layout : L R C LFE Ls Rs
Sampling rate : 48.0 kHz
Frame rate : 31.250 FPS (1536 SPF)
Compression mode : Lossy
Stream size : 286 MiB (4%)
Title : AC-3 5.1 @ 448 kb/s
Language : English
Service kind : Complete Main
Default : No
Forced : No

Text
ID : 5
Format : UTF-8
Codec ID : S_TEXT/UTF8
Codec ID/Info : UTF-8 Plain Text
Duration : 1 h 28 min
Bit rate : 77 b/s
Count of elements : 1338
Stream size : 50.3 KiB (0%)
Title : Full
Language : English
Default : No
Forced : No
Скріншоти











Джерело:
Особиста оцінка: 8 - мені сподобалося


Золотий реліз (завантажене не впливає на рейтинг)
 Трекер:    Зареєстрований   

Завантажити / скачати серіал українською



відео для новачків



 Зареєстрований:   2020-11-05 16:31
 Розмір:   83.76 GB 
 Оцінка серіалу:   9.9/10 (Голосів: 9)
   
bot 
робот


З нами з: 30.09.07
Востаннє: 26.05.05
Повідомлень: 26407

2020-11-01 19:14  
Тему перенесено з Серіали в HD до форуму Анонси релізів


Argentum

bot 
робот


З нами з: 30.09.07
Востаннє: 26.05.05
Повідомлень: 26407

2020-11-05 16:30  
Тему перенесено з Анонси релізів до форуму Серіали в HD


Argentum

zvb 
Новенький


З нами з: 31.05.09
Востаннє: 29.11.20
Повідомлень: 22

2020-11-05 20:42  
Хтось робить вдалі переклади. А хтось анонси (опис сюжету) З ПОМИЛКАМИ...
"пенсію, БА БІЛЬШЕ - ВИНАЙНяти квартиру"
"розділити витрати З НАЙМУ квартири"

Sexy_Beast 
Частий відвідувач


З нами з: 18.02.17
Востаннє: 28.11.20
Повідомлень: 47

2020-11-08 11:41  
Вибачаюсь, 4й сезон без перекладу? Бо з опису не зрозуміло....
Argentum 
VIP


З нами з: 25.09.11
Востаннє: 29.11.20
Повідомлень: 262

2020-11-08 17:21  
Sexy_Beast написано:
Вибачаюсь, 4й сезон без перекладу? Бо з опису не зрозуміло....

Всі сезони з перекладом. Просто у сезонах з 1 по 3 бітрейт української доріжки 256 кб/с тоді як у спецепізоді та 4 сезоні 192 кб/с.

Ваш часовий пояс: GMT + 2 Години

Нова тема   Відповісти