Дурки (Сімейка Придурків) / The Stupids (1996) 1080p Eng | sub Ukr/Eng

Нові коментарі

Нова тема   Відповісти
Останній раз роздавалося besconst (2020-12-03)
Автор Повідомлення
besconst 
Свій


З нами з: 10.03.12
Востаннє: 04.12.20
Повідомлень: 64

2020-10-30 22:05  
Дурки (Сімейка Придурків) / The Stupids (1996) 1080p Eng | sub Ukr/Eng

Дурки (Сімейка Придурків) / The Stupids (1996) 1080p Eng | sub Ukr/Eng


Жанр: сімейний, комедія
Країна: США



Кінокомпанія: Savoy Pictures, Rank Film Distributors
Режисер: Джон Лендіс
Актори: Том Арнольд, Баґ Голл, Джессіка Ланді, Алекс МакКенна, Крістофер Лі, Дженні Маккарті

Сюжет:
У передмісті живе одне сімейство Дурко і їхня поведінка цілком відповідає цьому прізвищу. Кожен член сім'ї скрізь бачить дурнуваті теорії змови, які вони разом намагаються розкрити, вплутуючись при цьому у різні пригоди.


Тривалість: 01:33:51
Якість:
Відео:
кодек:
розмір кадру: 1920 х 1072
бітрейт: 2250 кб/с

Аудіо:
мова: англійська
переклад: оригінал
кодек: 2.0
бітрейт: 129 кб/с

Субтитри:
мова: українська
переклад: любительський, besconst
тип: програмні (м'які)
формат: *.srt
Info

General
Unique ID : 215594425379062280252720095138770349735 (0xA231F9D90AC6C0B41AD27D3BA2546EA7)
Complete name : D:\Movies\The Stupids (1996) [1080p] [] [sub Ukr,Eng].
Format :
Format version : Version 4 / Version 2
File size : 1.56 GiB
Duration : 1 h 33 min
Overall bit rate : 2 380 kb/s
Encoded date : UTC 2020-10-30 18:06:46
Writing application : v20.0.0 ('I Am The Sun') 64-bit
Writing library : libebml v1.3.5 + v1.4.8
Cover : Yes
Attachments : cover.jpg

Video
ID : 1
Format : AVC
Format/Info : Advanced Video Codec
Format profile : [email protected]
Format settings, CABAC : Yes
Format settings, ReFrames : 4 frames
Codec ID : V_MPEG4/ISO/AVC
Duration : 1 h 33 min
Bit rate : 2 250 kb/s
Width : 1 920 pixels
Height : 1 072 pixels
Display aspect ratio : 16:9
Frame rate mode : Constant
Frame rate : 23.976 (24000/1001) FPS
Color space : YUV
Chroma subsampling : 4:2:0
Bit depth : 8 bits
Scan type : Progressive
Bits/(Pixel*Frame) : 0.046
Stream size : 1.47 GiB (94%)
Writing library : core 159
Encoding settings : cabac=1 / ref=4 / deblock=1:-1:-1 / analyse=0x3:0x133 / me=umh / subme=9 / psy=1 / psy_rd=1.00:0.15 / mixed_ref=1 / me_range=24 / chroma_me=1 / trellis=2 / 8x8dct=1 / cqm=0 / deadzone=21,11 / fast_pskip=0 / chroma_qp_offset=-3 / threads=18 / lookahead_threads=1 / sliced_threads=0 / nr=0 / decimate=1 / interlaced=0 / bluray_compat=0 / constrained_intra=0 / bframes=3 / b_pyramid=2 / b_adapt=2 / b_bias=0 / direct=3 / weightb=1 / open_gop=0 / weightp=2 / keyint=250 / keyint_min=23 / scenecut=40 / intra_refresh=0 / rc_lookahead=60 / rc=2pass / mbtree=1 / bitrate=2250 / ratetol=1.0 / qcomp=0.60 / qpmin=0 / qpmax=69 / qpstep=4 / cplxblur=20.0 / qblur=0.5 / vbv_maxrate=31250 / vbv_bufsize=31250 / nal_hrd=none / filler=0 / ip_ratio=1.40 / aq=1:1.00
Default : Yes
Forced : No

Audio
ID : 2
Format :
Format/Info : Advanced Audio Codec
Format profile : LC
Codec ID : A_AAC
Duration : 1 h 33 min
Bit rate : 129 kb/s
Channel(s) : 2 channels
Channel positions : Front: L R
Sampling rate : 48.0 kHz
Frame rate : 46.875 FPS (1024 spf)
Compression mode : Lossy
Delay relative to video : -21 ms
Stream size : 86.4 MiB (5%)
Default : Yes
Forced : No

Text #1
ID : 3
Format : UTF-8
Codec ID : S_TEXT/UTF8
Codec ID/Info : UTF-8 Plain Text
Duration : 1 h 28 min
Bit rate : 84 b/s
Count of elements : 1254
Stream size : 55.2 KiB (0%)
Language : Ukrainian
Default : Yes
Forced : Yes

Text #2
ID : 4
Format : UTF-8
Codec ID : S_TEXT/UTF8
Codec ID/Info : UTF-8 Plain Text
Duration : 1 h 31 min
Bit rate : 50 b/s
Count of elements : 1189
Stream size : 33.8 KiB (0%)
Language : English
Default : No
Forced : No
Скріншоти
Джерело:
Особиста оцінка: 8 - мені сподобалося


Золотий реліз (завантажене не впливає на рейтинг)
 Трекер:    Зареєстрований   

Завантажити / скачати фільм українською



відео для новачків



 Зареєстрований:   2020-10-30 22:05
 Розмір:   1.56 GB 
 Оцінка фільму:   7/10 (Голосів: 3)
   
besconst 
Свій


З нами з: 10.03.12
Востаннє: 04.12.20
Повідомлень: 64

2020-10-30 22:08  
легка сімейна комедія з дитинства, рейтинг по моєму занижений
MutuLI 
Відео Гуртом - фільмокрай
Відео Гуртом - фільмокрай


З нами з: 08.03.09
Востаннє: 04.12.20
Повідомлень: 2011

2020-10-31 07:45  
А субтитри звідки? Самі перекладали?
besconst 
Свій


З нами з: 10.03.12
Востаннє: 04.12.20
Повідомлень: 64

2020-10-31 07:50  
MutuLI написано:
А субтитри звідки? Самі перекладали?

так, авторський переклад

MutuLI 
Відео Гуртом - фільмокрай
Відео Гуртом - фільмокрай


З нами з: 08.03.09
Востаннє: 04.12.20
Повідомлень: 2011

2020-10-31 07:53  
besconst написано:
так, авторський переклад

Допишіть це в будь ласка в опис.

besconst 
Свій


З нами з: 10.03.12
Востаннє: 04.12.20
Повідомлень: 64

2020-10-31 08:16  
MutuLI написано:
Допишіть це в будь ласка в опис.

додав

Ваш часовий пояс: GMT + 2 Години

Нова тема   Відповісти