Медовий переполох / Plan Bee (2007)

Нові коментарі

Нова тема   Відповісти
Автор Повідомлення
urij546724 
Відео Гуртом - фільмокрай
Відео Гуртом - фільмокрай


З нами з: 16.03.10
Востаннє: 19.04.21
Повідомлень: 5784

2020-10-29 18:56  
Медовий переполох / Plan Bee (2007)



Жанр: комедія, анімація, пригодницький, сімейний, фентезі
Країна: США



Кіностудія / кінокомпанія: Spark Plug Entertainment
Режисер: Майкл Шелп (Michael Schelp)
Актори: Пітер Фернандес (Peter Fernandez), Деніз Фінеллі (Denise Finelli), Катріна Кросс (Katrina Kross), Клодін Охайон (Claudine Ohayon), Корінн Орр (Corinne Orr), Катріна Розаті (Katrina Rosati), Енні Сільвер (Annie Silver)...

Сюжет:
Мультфільм для сімейного перегляду про бджолу, якій подобається бути бджолою: свіже повітря, аромати квітів, мед. Але нова королева і її амбітні плани перевертають життя нашого героя догори дриґом. Інтриги подібно до медових стільників пронизують і змушують гудіти весь вулик. Чи вистачить у звичайній бджоли і його друзів сил, протистояти обставинам в особі владної королеви?


Тривалість: 00:42:44
Якість:
Відео:
кодек:
розмір кадру: 704 х 512
бітрейт: 1891 кб/с
частота кадрів: 25 к/с (fps)

Аудіо #1:
мова: українська
переклад: двоголосий закадровий
кодек: 2.0
бітрейт: 192 кб/с
запис звуку з каналу: 1+1
Media info:
General
Format : AVI
Format/Info : Audio Video Interleave
File size : 640 MiB
Duration : 42 min 44 s
Overall bit rate : 2 093 kb/s
Writing application : VirtualDubMod 1.5.10.2 (build 2540/release)
Writing library : VirtualDubMod build 2540/release

Video
ID : 0
Format : MPEG-4 Visual
Format profile : Advanced [email protected]
Format settings : BVOP2
Format settings, BVOP : 2
Format settings, QPel : No
Format settings, GMC : No warppoints
Format settings, Matrix : Default (MPEG)
Muxing mode : Packed bitstream
Codec ID :
Codec ID/Hint :
Duration : 42 min 44 s
Bit rate : 1 891 kb/s
Width : 704 pixels
Height : 512 pixels
Display aspect ratio : 1.375
Frame rate : 25.000 FPS
Color space : YUV
Chroma subsampling : 4:2:0
Bit depth : 8 bits
Scan type : Progressive
Compression mode : Lossy
Bits/(Pixel*Frame) : 0.210
Stream size : 578 MiB (90%)
Writing library : 1.2.0.dev47 (UTC 2006-11-01)

Audio
ID : 1
Format : AC-3
Format/Info : Audio Coding 3
Commercial name : Dolby Digital
Codec ID : 2000
Duration : 42 min 43 s
Bit rate mode : Constant
Bit rate : 192 kb/s
Channel(s) : 2 channels
Channel layout : L R
Sampling rate : 48.0 kHz
Frame rate : 31.250 FPS (1536 SPF)
Compression mode : Lossy
Stream size : 58.7 MiB (9%)
Alignment : Aligned on interleaves
Interleave, duration : 40 ms (1.00 video frame)
Interleave, preload duratio : 512 ms
Title : Українська доріжка
Service kind : Complete Main
Скріншоти:





Трейлер:
Семпл:
Джерело 1_________Джерело 2_________Джерело 3_________Джерело 4_________Джерело 5_________Джерело 6
У випадку, якщо з усіх джерел семпл видалять, прохання повідомити мені у ПРИВАТ


Подяка:

1. Пану Hulk1987 за запис звуку з ТБ.


Реліз створено:


 Трекер:    Зареєстрований   

Завантажити / скачати мультфільм українською



відео для новачків



 Зареєстрований:   2020-10-29 18:56
 Розмір:   640 MB 
 Оцінка мультфільму:   8/10 (Голосів: 2)
 Прохання не тікати з роздачі і залишати коментарі.
   
tilda4334 
Відео Гуртом - фільмокрай
Відео Гуртом - фільмокрай


З нами з: 15.08.14
Востаннє: 19.04.21
Повідомлень: 1542

2020-10-29 19:03  
ОМГ, що за всрата анімація?)
1+1 таке озвучили, жесть)

Altron320 
Поважний учасник


З нами з: 08.05.20
Востаннє: 19.04.21
Повідомлень: 207

2020-10-29 20:21  
Ого, українською стільки всього озвучено, що через нудьгу і до мокбастерів добрались. Happy
Libra73 
Новенький


З нами з: 17.11.10
Востаннє: 19.04.21
Повідомлень: 21

2020-11-04 20:06  
Цитата:
догори дном

Може "догори дригом"?

urij546724 
Відео Гуртом - фільмокрай
Відео Гуртом - фільмокрай


З нами з: 16.03.10
Востаннє: 19.04.21
Повідомлень: 5784

2020-11-05 10:17  
Libra73 написано:
Може "догори дригом"?

Дякую. Змінив.

Ваш часовий пояс: GMT + 2 Години

Нова тема   Відповісти