Різдвяна зірка / The Star (2017) AVC Ukr/Eng | sub ukr/Eng

Нові коментарі

Нова тема   Відповісти
Автор Повідомлення
Arsenfpu 
Відео Гуртом - фільмокрай
Відео Гуртом - фільмокрай


З нами з: 30.04.09
Востаннє: 15.04.21
Повідомлень: 8138

2020-10-27 17:37  
Різдвяна зірка / The Star (2017) AVC Ukr/Eng | sub ukr/Eng

Різдвяна зірка / The Star (2017) AVC Ukr/Eng | sub ukr/Eng


Жанр: анімація, пригодницький, комедія
Країна: США



Кінокомпанія: Affirm Films, Sony Pictures Animation, Walden Media
Режисер: Тімоті Рекарт
Ролі озвучують: Стівен Ян, Кіген-Майкл Кі, Ейді Брайант, Джина Родрігез, Закарі Лева, Крістофер Пламмер, Вінг Реймз, Габріель Іглесіас, Келлі Кларксон, Ентоні Андерсон

Сюжет:
Маленький відважний ослик на ім'я Бо працює на млині, мріючи вирватися на свободу і побачити світ. І в один прекрасний день його бажання здійснюється! Бо бачить в небі надзвичайно яскраву зірку і вирішує відправитися по шляху, який вона вказує. Його чекають дивовижні пригоди і зустріч з новими друзями, серед яких знайдеться мила овечка, голуб-жартівник і навіть трійця верблюдів. Різношерстій компанії мандрівників належить стати мимовільними учасниками і свідками самого чарівного і чудесного події - Різдва.


Тривалість: 01:26:06
Якість:
Відео:
кодек:
розмір кадру: 1 112 х 600
бітрейт: 2 538 кб/с

Аудіо # 1:
мова: українська
переклад: багатоголосий закадровий
кодек: 2.0
бітрейт: 192 кб/с

Аудіо # 2:
мова: англійська
переклад: оригінал
кодек: 2.0
бітрейт: 192 кб/с

Субтитри:
мова: українська
тип: програмні (м'які)
формат: *.srt

Субтитри:
мова: англійська
тип: програмні (м'які)
формат: *.srt
Скріншоти














Про файл
General
Unique ID : 214009070728004996063840662192617820420 (0xA100A5D428F7659FC6C3C78D83321104)
Complete name : D:\Завантаження\The Star (2017) [Ukr,Eng] AVC [Hurtom].
Format :
Format version : Version 4
File size : 1.76 GiB
Duration : 1 h 26 min
Overall bit rate : 2 925 kb/s
Movie name : Різдвяна зірка / The Star (2017)
Encoded date : UTC 2020-10-27 20:49:39
Writing application : v21.0.0 ('Tardigrades Will Inherit The Earth') 32-bit
Writing library : libebml v1.3.5 + v1.4.8
Cover : Yes
Attachments : cover.jpg

Video
ID : 1
Format : AVC
Format/Info : Advanced Video Codec
Format profile : [email protected]
Format settings : CABAC / 12 Ref Frames
Format settings, CABAC : Yes
Format settings, Reference : 12 frames
Codec ID : V_MPEG4/ISO/AVC
Duration : 1 h 26 min
Bit rate : 2 538 kb/s
Width : 1 112 pixels
Height : 600 pixels
Display aspect ratio : 1.85:1
Frame rate mode : Constant
Frame rate : 23.976 (24000/1001) FPS
Color space : YUV
Chroma subsampling : 4:2:0
Bit depth : 8 bits
Scan type : Progressive
Bits/(Pixel*Frame) : 0.159
Stream size : 1.53 GiB (87%)
Writing library : core 155 r2901 7d0ff22
Encoding settings : cabac=1 / ref=12 / deblock=1:-2:-1 / analyse=0x3:0x113 / me=umh / subme=10 / psy=1 / psy_rd=1.05:0.01 / mixed_ref=1 / me_range=32 / chroma_me=1 / trellis=2 / 8x8dct=1 / cqm=0 / deadzone=21,11 / fast_pskip=0 / chroma_qp_offset=-3 / threads=6 / lookahead_threads=1 / sliced_threads=0 / nr=0 / decimate=1 / interlaced=0 / bluray_compat=0 / constrained_intra=0 / bframes=11 / b_pyramid=2 / b_adapt=2 / b_bias=0 / direct=1 / weightb=1 / open_gop=0 / weightp=2 / keyint=250 / keyint_min=23 / scenecut=40 / intra_refresh=0 / rc_lookahead=60 / rc=crf / mbtree=0 / crf=17.7 / qcomp=0.70 / qpmin=0 / qpmax=69 / qpstep=4 / vbv_maxrate=50000 / vbv_bufsize=62500 / crf_max=0.0 / nal_hrd=none / filler=0 / ip_ratio=1.40 / pb_ratio=1.30 / aq=3:0.85
Language : English
Default : Yes
Forced : No

Audio #1
ID : 2
Format : AC-3
Format/Info : Audio Coding 3
Commercial name : Dolby Digital
Codec ID : A_AC3
Duration : 1 h 26 min
Bit rate mode : Constant
Bit rate : 192 kb/s
Channel(s) : 2 channels
Channel layout : L R
Sampling rate : 48.0 kHz
Frame rate : 31.250 FPS (1536 SPF)
Compression mode : Lossy
Stream size : 118 MiB (7%)
Language : Ukrainian
Service kind : Complete Main
Default : Yes
Forced : Yes

Audio #2
ID : 3
Format : AC-3
Format/Info : Audio Coding 3
Commercial name : Dolby Digital
Codec ID : A_AC3
Duration : 1 h 26 min
Bit rate mode : Constant
Bit rate : 192 kb/s
Channel(s) : 2 channels
Channel layout : L R
Sampling rate : 48.0 kHz
Frame rate : 31.250 FPS (1536 SPF)
Compression mode : Lossy
Stream size : 118 MiB (7%)
Language : English
Service kind : Complete Main
Default : No
Forced : No

Text #1
ID : 4
Format : UTF-8
Codec ID : S_TEXT/UTF8
Codec ID/Info : UTF-8 Plain Text
Duration : 1 h 24 min
Bit rate : 90 b/s
Count of elements : 1287
Stream size : 56.2 KiB (0%)
Language : Ukrainian
Default : No
Forced : No

Text #2
ID : 5
Format : UTF-8
Codec ID : S_TEXT/UTF8
Codec ID/Info : UTF-8 Plain Text
Duration : 1 h 16 min
Bit rate : 69 b/s
Count of elements : 1283
Stream size : 38.9 KiB (0%)
Title : Full
Language : English
Default : No
Forced : No

Text #3
ID : 6
Format : UTF-8
Codec ID : S_TEXT/UTF8
Codec ID/Info : UTF-8 Plain Text
Duration : 1 h 23 min
Bit rate : 77 b/s
Count of elements : 1638
Stream size : 47.5 KiB (0%)
Title : SDH
Language : English
Default : No
Forced : No

Text #4
ID : 7
Format : UTF-8
Codec ID : S_TEXT/UTF8
Codec ID/Info : UTF-8 Plain Text
Duration : 1 h 23 min
Bit rate : 152 b/s
Count of elements : 1638
Stream size : 93.5 KiB (0%)
Title : SDH-Colored
Language : English
Default : No
Forced : No

Menu
00:00:00.000 : en:Chapter 1
00:04:20.385 : en:Chapter 2
00:08:07.112 : en:Chapter 3
00:13:11.290 : en:Chapter 4
00:18:07.753 : en:Chapter 5
00:21:29.246 : en:Chapter 6
00:25:59.224 : en:Chapter 7
00:30:26.825 : en:Chapter 8
00:34:41.997 : en:Chapter 9
00:39:09.722 : en:Chapter 10
00:47:09.910 : en:Chapter 11
00:52:29.772 : en:Chapter 12
00:57:39.414 : en:Chapter 13
01:04:37.874 : en:Chapter 14
01:09:35.171 : en:Chapter 15
01:13:40.875 : en:Chapter 16
Джерело:
Особиста оцінка: не дивився


 Трекер:    Зареєстрований   

Завантажити / скачати мультфільм українською



відео для новачків



 Зареєстрований:   2020-10-28 00:11
 Розмір:   1.76 GB 
 Оцінка мультфільму:   8.4/10 (Голосів: 16)
   
bot 
робот


З нами з: 30.09.07
Востаннє: 26.05.05
Повідомлень: 27892

2020-10-28 00:11  
Тему перенесено з Анонси релізів до форуму Мультфільми


Arsenfpu

rer007 
Новенький


З нами з: 24.01.10
Востаннє: 04.04.21
Повідомлень: 6

2020-12-03 00:18  
Увавв, тільки приємні враження, мій улюблений мульт про Різдво. Дякую за українську озвучку!
Djohnnikey 
VIP


З нами з: 01.10.15
Востаннє: 12.04.21
Повідомлень: 472

2021-01-01 22:56  
В цілому начебто непоганий мульт, але місцями занадто наївний, а місцями непояснюваний: наприклад чому напочатку один з верблюдів не міг йти, і буквально повз, але при цьому на це не звертали уваги ані волхв-наїздник, ані інши верблюди? Адже потім показують, що з цим верблюдом усе гаразд, а решта - його друзі...
Але, загалом, подивитися можна.
6 з 10.

dmm7 
Новенький


З нами з: 15.05.14
Востаннє: 07.04.21
Повідомлень: 3

2021-02-09 11:41  
Вау, дякую за мульт, супер.
А Марію що - малювали з Дженніфер Лоуренс?

Ваш часовий пояс: GMT + 2 Години

Нова тема   Відповісти