Непідкорений / Invictus (2009) 1080p Eng | Sub Ukr/Eng

Нові коментарі

Нова тема   Відповісти
Автор Повідомлення
Alukret 
Свій


З нами з: 11.06.14
Востаннє: 05.12.20
Повідомлень: 101

2020-10-27 14:48  
Непідкорений / Invictus (2009) 1080p Eng | Sub Ukr/Eng

Непідкорений / Invictus (2009) 1080p Eng | Sub Ukr/Eng


Жанр: біографічний, драма, історичний, спорт
Країна: США



Кінокомпанія: Warner Bros. Pictures, Spyglass Entertainment, Revelations Entertainment, Mace Neufeld Productions, Malpaso Productions
Режисер: Клінт Іствуд (Clint Eastwood)
Актори: Морган Фрімен (Morgan Freeman), Метт Деймон (Matt Damon), Тоні Кгороге (Tony Kgoroge), Патрік Мофокенг (Patrick Mofokeng), Метт Штерн (Matt Stern), Джуліан Льюіс Джонс (Julian Lewis Jones), Аджоа Андох (Adjoa Andoh), Маргаріт Уітлі (Marguerite Wheatley), Лелеті Кумало (Leleti Khumalo)

Сюжет:
Фільм про час після падіння апартеїду, коли Південна Африка провела у себе Кубок світу з регбі 1995 року. Тоді Нельсон Манделла знаходився на своєму першому президентському терміні, намагаючись використовувати всі можливості, щоб припинити багаторічне нерозуміння між білим і чорношкірим населенням країни.


Тривалість: 02:13:38
Якість:
Відео:
кодек:
розмір кадру: 1920 х 800
бітрейт: 14500 кб/с

Аудіо:
мова: англійська
переклад: оригінал
кодек: 5.1
бітрейт: 1509 кб/с

Субтитри # 1:
мова: українська
тип: програмні (м'які)
формат: *.srt

Субтитри # 2:
мова: англійська
тип: програмні (м'які)
формат: *.srt
Скріншоти


Info

Код:

General
Unique ID                                : 86573461427437909172024065782787477114 (0x41217132657000DD7DF8A2D1B49A0E7A)
Complete name                            : Invictus (2009) 1080p [ENG] [Hurtom].
Format                                   :
Format version                           : Version 4
File size                                : 14.9 GiB
Duration                                 : 2 h 13 min
Overall bit rate                         : 16.0 Mb/s
Movie name                               : Invictus (2009) 1080p [ENG] [Hurtom]
Encoded date                             : UTC 2020-10-27 12:28:35
Writing application                      : v44.0.0 ('Domino') 64-bit
Writing library                          : libebml v1.3.10 + v1.5.2
Cover                                    : Yes
Attachments                              : cover.jpg

Video
ID                                       : 1
Format                                   : AVC
Format/Info                              : Advanced Video Codec
Format profile                           : [email protected]
Format settings                          : CABAC / 4 Ref Frames
Format settings, CABAC                   : Yes
Format settings, Reference frames        : 4 frames
Codec ID                                 : V_MPEG4/ISO/AVC
Duration                                 : 2 h 13 min
Bit rate                                 : 14.5 Mb/s
Width                                    : 1 920 pixels
Height                                   : 800 pixels
Display aspect ratio                     : 2.40:1
Frame rate mode                          : Constant
Frame rate                               : 23.976 FPS
Color space                              : YUV
Chroma subsampling                       : 4:2:0
Bit depth                                : 8 bits
Scan type                                : Progressive
Bits/(Pixel*Frame)                       : 0.394
Stream size                              : 13.5 GiB (91%)
Title                                    : AVC / 1080p / 14500 kbps
Writing library                          : core 88 r1471 1144615
Encoding settings                        : cabac=1 / ref=4 / deblock=1:-3:-3 / analyse=0x3:0x113 / me=umh / subme=10 / psy=1 / psy_rd=1.05:0.10 / mixed_ref=1 / me_range=64 / chroma_me=1 / trellis=2 / 8x8dct=1 / cqm=0 / deadzone=21,11 / fast_pskip=0 / chroma_qp_offset=-2 / threads=12 / sliced_threads=0 / nr=0 / decimate=1 / mbaff=0 / constrained_intra=0 / bframes=3 / b_pyramid=2 / b_adapt=2 / b_bias=0 / direct=3 / wpredb=1 / wpredp=2 / keyint=250 / keyint_min=25 / scenecut=40 / intra_refresh=0 / rc_lookahead=50 / rc=2pass / mbtree=1 / bitrate=14500 / ratetol=2.0 / qcomp=0.70 / qpmin=10 / qpmax=51 / qpstep=4 / cplxblur=20.0 / qblur=0.5 / vbv_maxrate=50000 / vbv_bufsize=50000 / ip_ratio=1.40 / aq=1:1.00
Default                                  : Yes
Forced                                   : No

Audio
ID                                       : 2
Format                                   :
Format/Info                              : Digital Theater Systems
Codec ID                                 : A_DTS
Duration                                 : 2 h 13 min
Bit rate mode                            : Constant
Bit rate                                 : 1 509 kb/s
Channel(s)                               : 6 channels
Channel layout                           : C L R Ls Rs LFE
Sampling rate                            : 48.0 kHz
Frame rate                               : 93.750 FPS (512 SPF)
Bit depth                                : 24 bits
Compression mode                         : Lossy
Stream size                              : 1.41 GiB (9%)
Title                                    : / 5.1 / 1509 kbps
Language                                 : English
Default                                  : Yes
Forced                                   : No

Text #1
ID                                       : 3
Format                                   : UTF-8
Codec ID                                 : S_TEXT/UTF8
Codec ID/Info                            : UTF-8 Plain Text
Duration                                 : 2 h 5 min
Bit rate                                 : 84 b/s
Count of elements                        : 1328
Stream size                              : 77.5 KiB (0%)
Title                                    : Full
Language                                 : Ukrainian
Default                                  : Yes
Forced                                   : Yes

Text #2
ID                                       : 4
Format                                   : UTF-8
Codec ID                                 : S_TEXT/UTF8
Codec ID/Info                            : UTF-8 Plain Text
Duration                                 : 2 h 5 min
Bit rate                                 : 50 b/s
Count of elements                        : 1292
Stream size                              : 46.8 KiB (0%)
Title                                    : Full
Language                                 : English
Default                                  : No
Forced                                   : No

Джерело: &
Особиста оцінка: 9 - давно не бачив настільки якісне кіно


 Трекер:    Зареєстрований   

Завантажити / скачати фільм українською



відео для новачків



 Зареєстрований:   2020-10-27 14:48
 Розмір:   14.94 GB 
 Оцінка фільму:   7.5/10 (Голосів: 4)
   
Інші релізи
   Непідкорений / Invictus (2009) Eng | sub Ukr fazza  2 / 0   1.96 GB   2010-07-14 19:32 
MutuLI 
Відео Гуртом - фільмокрай
Відео Гуртом - фільмокрай


З нами з: 08.03.09
Востаннє: 05.12.20
Повідомлень: 2011

2020-10-28 06:54  
Перенесіть у субтитроване
bot 
робот


З нами з: 30.09.07
Востаннє: 26.05.05
Повідомлень: 26482

2020-10-28 10:09  
Тему перенесено з Фільми в HD до форуму Фільми


Alukret

Ваш часовий пояс: GMT + 2 Години

Нова тема   Відповісти