Останній поцілунок / L'ultimo bacio (2001) AVC Ukr/Ita

Нові коментарі

Нова тема   Відповісти
Автор Повідомлення
Цікава ідея 
VIP


З нами з: 25.12.11
Востаннє: 06.03.21
Повідомлень: 823

2020-10-25 22:25  
AVC | 1080p

Останній поцілунок / L'ultimo bacio (2001) AVC Ukr/Ita


Останній поцілунок / L'ultimo bacio (2001) AVC Ukr/Ita


Якщо вам сподобалося озвучення фільму,
то ви можете підтримати нас за посиланням
ТИЦЬ


Жанр: комедія, драма
Країна: Італія



Кінокомпанія / телеканал: Fandango, Medusa Film
Режисери: Габріеле Муччіно
Актори: Стефано Аккорсі, Джованна Меззоджорно, Стефанія Сандреллі, Марко Чоччі, П'єрфранческо Фавіно, Сабріна Імпаччіаторе, Реджина Оріоль, Джорджіо Пасотті, Даніела Пьяцца, Клаудіо Сантамарія

Сюжет:
Карло, працівник рекламного агентства, скоро стане батьком. Він дуже любить свою подругу Джулію, але особисті проблеми у його кращих друзів змушують його засумніватися в тому, що він готовий стати главою сім'ї. Остаточно втративши голову від напливу емоцій і раптових змін в житті близьких людей, Карло захоплюється юною студенткою, усвідомлюючи, який біль він заподіює Джулії. Лише потім Карло зрозуміє, що ці події стали для нього справжнім випробуванням, витримати яке може тільки той, хто знає справжню ціну вірності і любові.


Перекладено та озвучено ТО "Цікава Ідея" на замовлення NemoInFire


Тривалість: 01:57:00

Якість: AVC
Відео:
кодек:
розмір кадру: 720 x 306
бітрейт: 1 100 кб/с

Аудіо # 1:
мова: українська | "Цікава Ідея"
переклад: професійний багатоголосий закадровий
кодек: 5.1
бітрейт: 448 кб/с

Аудіо # 2:
мова: італійська
переклад: оригінал
кодек: 5.1
бітрейт: 448 кб/с
Info
Код:
Format                                   :
Format version                           : Version 4
File size                                : 1.65 GiB
Duration                                 : 1 h 57 min
Overall bit rate                         : 2 001 kb/s
Movie name                               : Останній поцілунок / L'ultimo bacio (2001) AVC [Ukr.Ita] [Цікава Ідея]
Encoded date                             : UTC 2020-10-25 20:08:27
Writing application                      : v50.0.0 ('Awakenings') 64-bit
Writing library                          : libebml v1.4.0 + v1.6.2
Cover                                    : Yes
Attachments                              : cover.png

Video
ID                                       : 1
Format                                   : AVC
Format/Info                              : Advanced Video Codec
Format profile                           : [email protected]
Format settings                          : CABAC / 4 Ref Frames
Format settings, CABAC                   : Yes
Format settings, Reference frames        : 4 frames
Codec ID                                 : V_MPEG4/ISO/AVC
Duration                                 : 1 h 57 min
Bit rate                                 : 1 100 kb/s
Width                                    : 720 pixels
Height                                   : 306 pixels
Display aspect ratio                     : 2.35:1
Original display aspect ratio            : 2.35:1
Frame rate mode                          : Constant
Frame rate                               : 23.976 FPS
Color space                              : YUV
Chroma subsampling                       : 4:2:0
Bit depth                                : 8 bits
Scan type                                : Progressive
Bits/(Pixel*Frame)                       : 0.208
Stream size                              : 927 MiB (55%)
Writing library                          : core 157 r2935 545de2f
Encoding settings                        : cabac=1 / ref=2 / deblock=1:0:0 / analyse=0x1:0x111 / me=hex / subme=6 / psy=1 / psy_rd=1.00:0.00 / mixed_ref=1 / me_range=16 / chroma_me=1 / trellis=1 / 8x8dct=0 / cqm=0 / deadzone=21,11 / fast_pskip=1 / chroma_qp_offset=-2 / threads=10 / lookahead_threads=1 / sliced_threads=0 / nr=0 / decimate=1 / interlaced=0 / bluray_compat=0 / constrained_intra=0 / bframes=3 / b_pyramid=2 / b_adapt=1 / b_bias=0 / direct=1 / weightb=1 / open_gop=0 / weightp=1 / keyint=240 / keyint_min=24 / scenecut=40 / intra_refresh=0 / rc_lookahead=30 / rc=2pass / mbtree=1 / bitrate=1100 / ratetol=1.0 / qcomp=0.60 / qpmin=0 / qpmax=69 / qpstep=4 / cplxblur=20.0 / qblur=0.5 / vbv_maxrate=20000 / vbv_bufsize=25000 / nal_hrd=none / filler=0 / ip_ratio=1.40 / aq=1:1.00
Default                                  : Yes
Forced                                   : No
Color range                              : Limited
Color primaries                          : BT.709
Transfer characteristics                 : BT.709
Matrix coefficients                      : BT.709

Audio #1
ID                                       : 2
Format                                   : AC-3
Format/Info                              : Audio Coding 3
Commercial name                          : Dolby Digital
Codec ID                                 : A_AC3
Duration                                 : 1 h 57 min
Bit rate mode                            : Constant
Bit rate                                 : 448 kb/s
Channel(s)                               : 6 channels
Channel layout                           : L R C LFE Ls Rs
Sampling rate                            : 48.0 kHz
Frame rate                               : 31.250 FPS (1536 SPF)
Compression mode                         : Lossy
Stream size                              : 378 MiB (22%)
Title                                    : Цікава Ідея
Language                                 : Ukrainian
Service kind                             : Complete Main
Default                                  : Yes
Forced                                   : No

Audio #2
ID                                       : 3
Format                                   : AC-3
Format/Info                              : Audio Coding 3
Commercial name                          : Dolby Digital
Codec ID                                 : A_AC3
Duration                                 : 1 h 57 min
Bit rate mode                            : Constant
Bit rate                                 : 448 kb/s
Channel(s)                               : 6 channels
Channel layout                           : L R C LFE Ls Rs
Sampling rate                            : 48.0 kHz
Frame rate                               : 31.250 FPS (1536 SPF)
Compression mode                         : Lossy
Delay relative to video                  : 5 ms
Stream size                              : 378 MiB (22%)
Title                                    : Original
Language                                 : Italian
Service kind                             : Complete Main
Default                                  : No
Forced                                   : No
Скріншоти



Перекладено та озвучено творчим об'єднанням:


Авторський реліз (завантажувати можна без реєстрації)
 Трекер:    Зареєстрований   

Завантажити / скачати фільм українською



відео для новачків



 Зареєстрований:   2020-10-25 22:25
 Розмір:   1.65 GB 
 Оцінка фільму:   9.6/10 (Голосів: 9)
   
Інші релізи
NemoInFire 
Відео Гуртом - фільмокрай
Відео Гуртом - фільмокрай


З нами з: 12.11.07
Востаннє: 05.03.21
Повідомлень: 676

2020-10-27 21:28  
Ганка 
Свій


З нами з: 25.02.10
Востаннє: 28.02.21
Повідомлень: 51

2020-11-13 12:57  
Ще продовження - "Хата на Тата" Happy
яює 
Частий відвідувач


З нами з: 24.03.08
Востаннє: 27.02.21
Повідомлень: 28

2020-11-21 01:52  
Фільм дуже сподобався.
Люди в Італії такі ж як і в нас))
В шлюбі "на віру" жінка думає що заміжня, а чоловік думає що вільний)))

Ваш часовий пояс: GMT + 2 Години

Нова тема   Відповісти