Останній поцілунок / L'ultimo bacio (2001) 1080p Ukr/Ita

Нові коментарі

Нова тема   Відповісти
Автор Повідомлення
Цікава ідея 
VIP


З нами з: 26.12.11
Востаннє: 19.04.21
Повідомлень: 862

2020-10-25 21:51  
AVC | 1080p

Останній поцілунок / L'ultimo bacio (2001) 1080p Ukr/Ita


Останній поцілунок / L'ultimo bacio (2001) 1080p Ukr/Ita


Якщо вам сподобалося озвучення фільму,
то ви можете підтримати нас за посиланням
ТИЦЬ


Жанр: комедія, драма
Країна: Італія



Кінокомпанія / телеканал: Fandango, Medusa Film
Режисери: Габріеле Муччіно
Актори: Стефано Аккорсі, Джованна Меззоджорно, Стефанія Сандреллі, Марко Чоччі, П'єрфранческо Фавіно, Сабріна Імпаччіаторе, Реджина Оріоль, Джорджіо Пасотті, Даніела Пьяцца, Клаудіо Сантамарія

Сюжет:
Карло, працівник рекламного агентства, скоро стане батьком. Він дуже любить свою подругу Джулію, але особисті проблеми у його кращих друзів змушують його засумніватися в тому, що він готовий стати главою сім'ї. Остаточно втративши голову від напливу емоцій і раптових змін в житті близьких людей, Карло захоплюється юною студенткою, усвідомлюючи, який біль він заподіює Джулії. Лише потім Карло зрозуміє, що ці події стали для нього справжнім випробуванням, витримати яке може тільки той, хто знає справжню ціну вірності і любові.


Перекладено та озвучено ТО "Цікава Ідея" на замовлення NemoInFire


Тривалість: 01:57:00

Якість: 1080p
Відео:
кодек:
розмір кадру: 1920 x 818
бітрейт: 5277 кб/с

Аудіо # 1:
мова: українська | "Цікава Ідея"
переклад: професійний багатоголосий закадровий
кодек: 5.1
бітрейт: 448 кб/с

Аудіо # 2:
мова: італійська
переклад: оригінал
кодек: -HD Master Audio 5.1
бітрейт: 2231 кб/с
Info
Код:
Format                                   :
Format version                           : Version 4
File size                                : 6.56 GiB
Duration                                 : 1 h 57 min
Overall bit rate mode                    : Variable
Overall bit rate                         : 7 962 kb/s
Movie name                               : Останній поцілунок / L'ultimo bacio (2001) 1080p [Ukr.Ita] [Цікава Ідея]
Encoded date                             : UTC 2020-10-25 18:33:01
Writing application                      : v50.0.0 ('Awakenings') 64-bit
Writing library                          : libebml v1.4.0 + v1.6.2
Cover                                    : Yes
Attachments                              : cover.png

Video
ID                                       : 1
Format                                   : AVC
Format/Info                              : Advanced Video Codec
Format profile                           : [email protected]
Format settings                          : CABAC / 4 Ref Frames
Format settings, CABAC                   : Yes
Format settings, Reference frames        : 4 frames
Codec ID                                 : V_MPEG4/ISO/AVC
Duration                                 : 1 h 57 min
Bit rate                                 : 5 277 kb/s
Width                                    : 1 920 pixels
Height                                   : 818 pixels
Display aspect ratio                     : 2.35:1
Frame rate mode                          : Constant
Frame rate                               : 23.976 FPS
Color space                              : YUV
Chroma subsampling                       : 4:2:0
Bit depth                                : 8 bits
Scan type                                : Progressive
Bits/(Pixel*Frame)                       : 0.140
Stream size                              : 4.35 GiB (66%)
Title                                    : Paso77
Writing library                          : core 155 r2901 7d0ff22
Encoding settings                        : cabac=1 / ref=3 / deblock=1:0:0 / analyse=0x3:0x113 / me=hex / subme=7 / psy=1 / psy_rd=1.00:0.00 / mixed_ref=1 / me_range=16 / chroma_me=1 / trellis=1 / 8x8dct=1 / cqm=0 / deadzone=21,11 / fast_pskip=1 / chroma_qp_offset=-2 / threads=12 / lookahead_threads=2 / sliced_threads=0 / nr=0 / decimate=1 / interlaced=0 / bluray_compat=0 / constrained_intra=0 / bframes=3 / b_pyramid=2 / b_adapt=1 / b_bias=0 / direct=1 / weightb=1 / open_gop=0 / weightp=2 / keyint=240 / keyint_min=24 / scenecut=40 / intra_refresh=0 / rc_lookahead=40 / rc=crf / mbtree=1 / crf=20.0 / qcomp=0.60 / qpmin=0 / qpmax=69 / qpstep=4 / vbv_maxrate=62500 / vbv_bufsize=78125 / crf_max=0.0 / nal_hrd=none / filler=0 / ip_ratio=1.40 / aq=1:1.00
Language                                 : Italian
Default                                  : Yes
Forced                                   : No
Color range                              : Limited
Color primaries                          : BT.709
Transfer characteristics                 : BT.709
Matrix coefficients                      : BT.709

Audio #1
ID                                       : 2
Format                                   : AC-3
Format/Info                              : Audio Coding 3
Commercial name                          : Dolby Digital
Codec ID                                 : A_AC3
Duration                                 : 1 h 57 min
Bit rate mode                            : Constant
Bit rate                                 : 448 kb/s
Channel(s)                               : 6 channels
Channel layout                           : L R C LFE Ls Rs
Sampling rate                            : 48.0 kHz
Frame rate                               : 31.250 FPS (1536 SPF)
Compression mode                         : Lossy
Delay relative to video                  : -5 ms
Stream size                              : 378 MiB (6%)
Title                                    : Цікава Ідея
Language                                 : Ukrainian
Service kind                             : Complete Main
Default                                  : Yes
Forced                                   : No

Audio #2
ID                                       : 3
Format                                   : XLL
Format/Info                              : Digital Theater Systems
Commercial name                          : -HD Master Audio
Codec ID                                 : A_DTS
Duration                                 : 1 h 57 min
Bit rate mode                            : Variable
Bit rate                                 : 2 231 kb/s
Channel(s)                               : 6 channels
Channel layout                           : C L R Ls Rs LFE
Sampling rate                            : 48.0 kHz
Frame rate                               : 93.750 FPS (512 SPF)
Bit depth                                : 16 bits
Compression mode                         : Lossless
Stream size                              : 1.84 GiB (28%)
Title                                    : -HD
Language                                 : Italian
Default                                  : No
Forced                                   : No
Скріншоти



Перекладено та озвучено творчим об'єднанням:


Авторський реліз (завантажувати можна без реєстрації)
 Трекер:    Зареєстрований   

Завантажити / скачати фільм українською



відео для новачків



 Зареєстрований:   2020-10-25 21:51
 Розмір:   6.56 GB 
 Оцінка фільму:   9.7/10 (Голосів: 6)
   
Інші релізи
Ваш часовий пояс: GMT + 2 Години

Нова тема   Відповісти