Нав'язлива / Intruder (Chimipja) (2020) 1080p Kor | sub Ukr

Нові коментарі

Нова тема   Відповісти
Автор Повідомлення
killer2015 
Поважний учасник


З нами з: 30.01.15
Востаннє: 04.12.20
Повідомлень: 201

2020-10-25 11:45  
Нав'язлива / Intruder (Chimipja) (2020) 1080p Kor | sub Ukr

Нав'язлива / Intruder (Chimipja) (2020) 1080p Kor | sub Ukr


Жанр: трилер, детектив
Країна: Південна Корея



Кінокомпанія: B. A. Entertainment
Режисер: Он Пхен Сон
Актори: Му Oль Кім, Чжи Хе Сон, Су Чон Е, Сан Хун Чхве, Хе Он Лі, Ен У Чхве, Хон НЕ Лі, Чжун Сік Хо, Мін Ха Пак, Хі Чжон З, Дже Ен Лі, Хе Ун Лі, Сон Юн Чан, Хен УЗ

Сюжет:
Молодий архітектор Со-джин вже півроку не може оговтатися від загибелі дружини. Він живе у великому будинку батьків, страждає від посттравматичного синдрому і насилу спілкується з маленькою дочкою. Раптово Со-джину дзвонять з дитячого притулку і повідомляють, що знайшлася його молодша сестра Ю-джин, яку він більше 20 років тому втратив в парку розваг. Батьки радо приймають новознайдену дочку, і та оточує їх турботою, але Со-джину сестра здається дуже підозрілою.


Тривалість: 01:42:08
Якість: 1080p
Відео:
кодек:
розмір кадру: 1920x804
бітрейт: 4 567 кб/с

Аудіо:
мова: корейська
переклад: оригінал
кодек: 5.1
бітрейт: 384 кб/с

Субтитри:
мова: українська
(власний переклад з англійської та частково з російської)
тип: програмні (м'які)
формат: *.srt
МІ
General
Unique ID : 262614467450717488271027533940743598152 (0xC591B4E846E3A3DE2EDF02A23625F048)
Complete name : G:\Фільми\Chimipja (2020) 1080p\Chimipja (2020) 1080p.
Format :
Format version : Version 4
File size : 3.53 GiB
Duration : 1 h 42 min
Overall bit rate : 4 953 kb/s
Movie name : .ELEKTRI4KA.UNIONGANG.
Encoded date : UTC 2020-10-25 10:30:38
Writing application : v47.0.0 ('Black Flag') 64-bit
Writing library : libebml v1.3.10 + v1.5.2

Video
ID : 1
Format : AVC
Format/Info : Advanced Video Codec
Format profile : [email protected]
Format settings : CABAC / 5 Ref Frames
Format settings, CABAC : Yes
Format settings, Reference frames : 5 frames
Codec ID : V_MPEG4/ISO/AVC
Duration : 1 h 42 min
Bit rate : 4 567 kb/s
Width : 1 920 pixels
Height : 804 pixels
Display aspect ratio : 2.40:1
Frame rate mode : Constant
Frame rate : 24.000 FPS
Color space : YUV
Chroma subsampling : 4:2:0
Bit depth : 8 bits
Scan type : Progressive
Bits/(Pixel*Frame) : 0.123
Stream size : 3.26 GiB (92%)
Title : .ELEKTRI4KA.UNIONGANG.
Language : English
Default : Yes
Forced : No
Color range : Limited
Color primaries : BT.709
Transfer characteristics : BT.709
Matrix coefficients : BT.709

Audio
ID : 2
Format : AC-3
Format/Info : Audio Coding 3
Commercial name : Dolby Digital
Codec ID : A_AC3
Duration : 1 h 42 min
Bit rate mode : Constant
Bit rate : 384 kb/s
Channel(s) : 6 channels
Channel layout : L R C LFE Ls Rs
Sampling rate : 48.0 kHz
Frame rate : 31.250 FPS (1536 SPF)
Compression mode : Lossy
Stream size : 281 MiB (8%)
Title : iTunes
Language : Korean
Service kind : Complete Main
Default : No
Forced : No
Скріншоти





Джерело:
Особиста оцінка: 10 - без зайвих вагань рекомендую всім!


 Трекер:    Зареєстрований   

Завантажити / скачати фільм українською



відео для новачків



 Зареєстрований:   2020-10-25 11:45
 Розмір:   3.53 GB 
 Оцінка фільму:   9.5/10 (Голосів: 2)
   
killer2015 
Поважний учасник


З нами з: 30.01.15
Востаннє: 04.12.20
Повідомлень: 201

2020-10-25 11:46  

Ваш часовий пояс: GMT + 2 Години

Нова тема   Відповісти