Борат 2 / Borat Subsequent Moviefilm (2020) AVC Ukr/Eng

Нові коментарі

Нова тема   Відповісти
Сторінка:  1, 2  наступна
Автор Повідомлення
Цікава ідея 
VIP


З нами з: 25.12.11
Востаннє: 02.03.21
Повідомлень: 821

2020-10-25 00:48  
AVI | AVC | 720p | 1080p

Борат 2 / Borat Subsequent Moviefilm (2020) AVC Ukr/Eng


Борат 2 / Borat Subsequent Moviefilm (2020) AVC Ukr/Eng


Якщо вам сподобалося озвучення фільму,
то ви можете підтримати нас за посиланням
ТИЦЬ


Жанр: комедія
Країна: США, Велика Британія



Кінокомпанія / телеканал: Four by Two Films, Amazon Prime Video
Режисери: Джейсон Уолінер
Актори: Саша Барон Коен, Марія Бакалова, Том Хенкс, Дені Попеску

Сюжет:
Фільм-продовження комедії 2006 року, в центрі якого - реальні пригоди вигаданого казахстанського тележурналіста на ім'я Борат, що відправився в нову подорож по Америці разом зі своєю дочкою.


Перекладено та озвучено ТО "Цікава Ідея" за підтримки fishMD


Тривалість: 01:36:00

Якість: AVC
Відео:
кодек:
розмір кадру: 720 x 400
бітрейт: ~ 1 100 кб/с

Аудіо # 1:
мова: українська | "Цікава Ідея"
переклад: професійний багатоголосий закадровий
кодек: 5.1
бітрейт: 448 кб/с

Аудіо # 2:
мова: англійська
переклад: оригінал
кодек: E- 5.1
бітрейт: 640 кб/с
Info
Код:
Format                                   :
Format version                           : Version 4
File size                                : 1.48 GiB
Duration                                 : 1 h 36 min
Overall bit rate                         : 2 202 kb/s
Movie name                               : Борат 2 / Borat Subsequent Moviefilm (2020) AVC [Ukr.Eng] [Цікава Ідея]
Encoded date                             : UTC 2020-10-24 22:33:45
Writing application                      : v50.0.0 ('Awakenings') 64-bit
Writing library                          : libebml v1.4.0 + v1.6.2
Cover                                    : Yes
Attachments                              : cover.png

Video
ID                                       : 1
Format                                   : AVC
Format/Info                              : Advanced Video Codec
Format profile                           : [email protected]
Format settings                          : CABAC / 5 Ref Frames
Format settings, CABAC                   : Yes
Format settings, Reference frames        : 5 frames
Codec ID                                 : V_MPEG4/ISO/AVC
Duration                                 : 1 h 36 min
Bit rate                                 : 1 100 kb/s
Width                                    : 720 pixels
Height                                   : 400 pixels
Display aspect ratio                     : 16:9
Frame rate mode                          : Constant
Frame rate                               : 23.976 (24000/1001) FPS
Color space                              : YUV
Chroma subsampling                       : 4:2:0
Bit depth                                : 8 bits
Scan type                                : Progressive
Bits/(Pixel*Frame)                       : 0.159
Stream size                              : 756 MiB (50%)
Writing library                          : core 152 r2851M ba24899
Encoding settings                        : cabac=1 / ref=5 / deblock=1:-1:-1 / analyse=0x3:0x113 / me=umh / subme=9 / psy=1 / psy_rd=1.00:0.15 / mixed_ref=1 / me_range=16 / chroma_me=1 / trellis=2 / 8x8dct=1 / cqm=0 / deadzone=21,11 / fast_pskip=1 / chroma_qp_offset=-3 / threads=16 / lookahead_threads=1 / sliced_threads=0 / nr=0 / decimate=1 / interlaced=0 / bluray_compat=0 / constrained_intra=0 / bframes=3 / b_pyramid=2 / b_adapt=2 / b_bias=0 / direct=3 / weightb=1 / open_gop=0 / weightp=2 / keyint=250 / keyint_min=23 / scenecut=40 / intra_refresh=0 / rc_lookahead=50 / rc=2pass / mbtree=1 / bitrate=1100 / ratetol=1.0 / qcomp=0.60 / qpmin=0 / qpmax=69 / qpstep=4 / cplxblur=20.0 / qblur=0.5 / ip_ratio=1.40 / aq=1:1.00
Default                                  : Yes
Forced                                   : No

Audio #1
ID                                       : 2
Format                                   : AC-3
Format/Info                              : Audio Coding 3
Commercial name                          : Dolby Digital
Codec ID                                 : A_AC3
Duration                                 : 1 h 36 min
Bit rate mode                            : Constant
Bit rate                                 : 448 kb/s
Channel(s)                               : 6 channels
Channel layout                           : L R C LFE Ls Rs
Sampling rate                            : 48.0 kHz
Frame rate                               : 31.250 FPS (1536 SPF)
Compression mode                         : Lossy
Stream size                              : 308 MiB (20%)
Title                                    : Цікава Ідея
Language                                 : Ukrainian
Service kind                             : Complete Main
Default                                  : Yes
Forced                                   : No

Audio #2
ID                                       : 3
Format                                   : E-AC-3
Format/Info                              : Enhanced AC-3
Commercial name                          : Dolby Digital Plus
Codec ID                                 : A_EAC3
Duration                                 : 1 h 36 min
Bit rate mode                            : Constant
Bit rate                                 : 640 kb/s
Channel(s)                               : 6 channels
Channel layout                           : L R C LFE Ls Rs
Sampling rate                            : 48.0 kHz
Frame rate                               : 31.250 FPS (1536 SPF)
Compression mode                         : Lossy
Stream size                              : 440 MiB (29%)
Title                                    : Original
Language                                 : English
Service kind                             : Complete Main
Default                                  : No
Forced                                   : No
Скріншоти



Перекладено та озвучено творчим об'єднанням:


Авторський реліз (завантажувати можна без реєстрації)
 Трекер:    Зареєстрований   

Завантажити / скачати фільм українською



відео для новачків



 Зареєстрований:   2020-10-25 00:48
 Розмір:   1.48 GB 
 Оцінка фільму:   7.5/10 (Голосів: 102)
   
Інші релізи
   Борат 2 / Borat Subsequent Moviefilm (2020) Ukr/Eng antik_2008  35 / 0   1.94 GB   2020-10-28 10:25 
   Борат 2 / Borat Subsequent Moviefilm (2020) 720p Ukr/Eng Цікава ідея  24 / 0   3.11 GB   2020-10-25 00:43 
   Борат 2 / Borat Subsequent Moviefilm (2020) 1080p Ukr/Eng Цікава ідея  89 / 0   6.65 GB   2020-10-25 00:38 
munipet 
VIP


З нами з: 14.04.11
Востаннє: 02.03.21
Повідомлень: 336

2020-10-25 09:16  
таке лайно ,виключив і факін стер !!
shanovniy 
Частий відвідувач


З нами з: 04.08.09
Востаннє: 02.03.21
Повідомлень: 26

2020-10-25 16:45  
дякую, оперативно!
qruq 
Новенький


З нами з: 04.11.14
Востаннє: 21.02.21
Повідомлень: 2

2020-10-25 18:52  
Привіт! Чи хтось міг би закинути на хостінг українську звукдорогу?
tpolit 
Попереджень: 1
Попереджень: 1 


З нами з: 10.01.15
Востаннє: 02.03.21
Повідомлень: 686

2020-10-25 22:02  
Не уявляю, як на це лайно можна було дивитися в першій частині. А вони ще й другу випустили Wide grin
caleb_flax 
Новенький


З нами з: 02.02.13
Востаннє: 08.01.21
Повідомлень: 10

2020-10-25 23:24  
уххх,жирний троль! :)
BlackOnly 
Новенький


З нами з: 04.01.16
Востаннє: 02.03.21
Повідомлень: 9

2020-10-26 01:27  
tpolit
Співчуваю...

don pedro 
Попереджень: 1
Попереджень: 1 


З нами з: 29.06.11
Востаннє: 02.03.21
Повідомлень: 18882

2020-10-26 08:21  
Радий, що з Боратом і його донькою все гаразд.
frost89 
Новенький


З нами з: 20.02.13
Востаннє: 01.03.21
Повідомлень: 11

2020-10-26 09:06  
Круто
tpolit 
Попереджень: 1
Попереджень: 1 


З нами з: 10.01.15
Востаннє: 02.03.21
Повідомлень: 686

2020-10-26 10:59  
BlackOnly написано:
Співчуваю...


Своєму тату поспівчувай Wide grin

sumash55555 
Новенький


З нами з: 27.04.19
Востаннє: 02.03.21
Повідомлень: 2

2020-10-26 13:36  
Супер! Для тих хто в темі! Моралісти їдуть мимо!
SaratRich 
VIP


З нами з: 29.05.12
Востаннє: 02.03.21
Повідомлень: 354

2020-10-26 19:44  
Якого такий рейтинг високий?
HrytskivRoman 
Новенький


З нами з: 11.10.15
Востаннє: 28.02.21
Повідомлень: 9

2020-10-26 22:58  
Для тих хто не в темі - мета цього фільму, як і в першій частині, це висміювання соціальних проблем (ідіотизму) в США. Фільм - супер, хоча перша частина мені більше зайшла.
Apple 
Поважний учасник


З нами з: 13.07.08
Востаннє: 02.03.21
Повідомлень: 221

2020-10-26 23:14  
Цікава ідея

Ще не дивився, але за оперативний переклад 100 грн кинув.
Копійки, але все ж.
ДЯКУЮ!

Цікава ідея 
VIP


З нами з: 25.12.11
Востаннє: 02.03.21
Повідомлень: 821

2020-10-26 23:18  
Apple, дякуємо! Врахували на переклад та озвучення 4-го сезону Гострих картузів.
Apple 
Поважний учасник


З нами з: 13.07.08
Востаннє: 02.03.21
Повідомлень: 221

2020-10-27 11:26  
tpolit написано:
Своєму тату поспівчувай

Я буду репортити кожне твоє хамське повідомлення до інших людей. Це вже занадто.

tpolit 
Попереджень: 1
Попереджень: 1 


З нами з: 10.01.15
Востаннє: 02.03.21
Повідомлень: 686

2020-10-27 12:14  
Apple написано:
Я буду репортити кожне твоє хамське повідомлення до інших людей.


Своєму сусіду тикай, репортьор. Після того, як поговориш зі своєю мамою, звісно ж Wide grin



Флуд, офтоп, перехід на особистості, видано igor911
memememe 
Новенький


З нами з: 05.11.17
Востаннє: 24.02.21
Повідомлень: 8

2020-10-27 18:36  
МЕРЗОТА.
KeryaS 
VIP


З нами з: 01.09.14
Востаннє: 02.03.21
Повідомлень: 317

2020-10-27 21:06  
memememe написано:
МЕРЗОТА

Дуже змістовно) Як і всі інші відгуки) краще б розібралися з принципом роботи торент-трекерів і навчилися роздавати, а не тільки тягти, ніж виливати потоки негативу там, де вони нікому не потрібні.
А фільм не поганий, як для свого жанру, хоча місцями трохи й з перебором)))

Apple 
Поважний учасник


З нами з: 13.07.08
Востаннє: 02.03.21
Повідомлень: 221

2020-10-27 21:56  
[флуд, офтоп видалено]
tpolit 
Попереджень: 1
Попереджень: 1 


З нами з: 10.01.15
Востаннє: 02.03.21
Повідомлень: 686

2020-10-28 00:10  
[офтоп видалено]
nazarx 
Частий відвідувач


З нами з: 20.12.19
Востаннє: 21.02.21
Повідомлень: 33

2020-10-28 00:19  
[флуд, офтоп видалено]
А фільм лайно, ненавиджу клоунів останнім часом.

Vitale4ka 
Новенький


З нами з: 12.11.14
Востаннє: 02.03.21
Повідомлень: 1

2020-10-28 12:26  
Щира дяка за оперативність від усіх давніх шанувальників таланту цього надзвичайного коміка!
Шандрігон 
Свій


З нами з: 03.05.11
Востаннє: 02.03.21
Повідомлень: 98

2020-10-28 18:36  
"Цікавишся гівном? Значить сам лайно" С. Є. Лец
yapiss 
Новенький


З нами з: 02.01.17
Востаннє: 09.02.21
Повідомлень: 3

2020-11-01 20:47  
Порівнянно з першою частиною, ця чатина повне лайно!
behemot86 
Свій


З нами з: 04.10.10
Востаннє: 28.02.21
Повідомлень: 80

2020-11-02 11:09  
Перший фільм "Борат" (2006 р.) мені сподобався. Еххх, були часи колись. 2006 р. один з найкращих моїх років, студентських років...
oi-pilot 
Новенький


З нами з: 04.02.14
Востаннє: 02.11.20
Повідомлень: 1

2020-11-02 20:15  
За дубляж дякую але вважаю що хлопці перестарались з локалізацією жартів і всрали майже весь гумор.
Apple 
Поважний учасник


З нами з: 13.07.08
Востаннє: 02.03.21
Повідомлень: 221

2020-11-02 20:20  
oi-pilot
Тут згідний.
Все ж він з Казахстану, а не з Тернопільської області...
Мова вийшла занадто сільська, але по-українськи, як і жарти.

N.W.A 
VIP


З нами з: 22.11.13
Востаннє: 02.03.21
Повідомлень: 366

2020-11-03 22:41  
Не знаю, першу частину я хоч додивитись зміг, але тут вже перебір.
Вимкнув.

HTTPS2HTTPS 
Частий відвідувач


З нами з: 05.02.17
Востаннє: 02.03.21
Повідомлень: 47

2020-11-03 23:49  
Стрічка тупа, інколи огидна. Або навпаки, огидна та інколи тупа. Я не спеціаліст у шлаку. Кварталівський лайногумор -- це не моє.

Дайте Ляшку в руки смартфон і вила, взуйте його в кирзові чоботи, нагодуйте землею, посадіть на корову -- він зніме три сезони подібного шлаку, аби тільки вчергове не пролетіти на виборах.

Ваш часовий пояс: GMT + 2 Години

Нова тема   Відповісти Сторінка:  1, 2  наступна