Лось на Різдво / Es ist ein Elch entsprungen (2005) 1080p Ukr/Ger

Нові коментарі

Нова тема   Відповісти
Автор Повідомлення
Anonymous 







2020-10-24 21:09  
Лось на Різдво / Es ist ein Elch entsprungen (2005) 1080p Ukr/Ger

Лось на Різдво / Es ist ein Elch entsprungen (2005) 1080p Ukr/Ger


Жанр: комедія, сімейний, казка
Країна: Німеччина



Кінокомпанія: Bayerischer Banken-Fonds, Beauftragter der Bundesregierung für Angelegenheiten der Kultur und der Medien (BKM), Cine Tirol
Режисер: Бен Фербонґ
Актори: Маріо Адорф, Аня Клінґ, Рабан Бєлінґ, Сара Бек, Юрген Тарах, Моніка Ганзен, Крістіна Нойбауер

Сюжет:
Напередодні Різдва на дах будинку Вагнерів з неба впав лось. Яке ж було здивування дітей, коли літаючий лось представився: «Муз, містер Муз. Сімейство оленевих ». Виявилося, що лось віз на санях свого господаря Санта-Клауса і не вписався в поворот. Різдво не настане, якщо лось вчасно не повернеться до Санти...


Тривалість: 01:27:03
Якість:
Відео:
кодек:
розмір кадру: 1920 х 1080
бітрейт: 4802 кб/с

Аудіо # 1:
мова: українська
переклад: двоголосий закадровий
кодек: 2.0
бітрейт: 192 кб/с

Аудіо # 2:
мова: німецька
переклад: оригінал
кодек: 2.0
бітрейт: 384 кб/с

Джерело озвучення:

За запис звуку з ТБ дякуємо пану Hulk1987
Info
Код:
General
Unique ID                                : 163051993128064727222511978392759126017 (0x7AAAABEE5A80A3DC6EE374059A2D4801)
Complete name                            : Es ist ein Elch entsprungen (2005) 1080p [Ukr_Ger] [Hurtom].
Format                                   :
Format version                           : Version 4
File size                                : 3.27 GiB
Duration                                 : 1 h 27 min
Overall bit rate                         : 5 381 kb/s
Movie name                               : Лось на Ріхдво (2005)
Encoded date                             : UTC 2020-10-24 18:03:13
Writing application                      : v50.0.0 ('Awakenings') 64-bit
Writing library                          : libebml v1.4.0 + v1.6.2
Cover                                    : Yes
Attachments                              : cover.jpg

Video
ID                                       : 1
Format                                   : AVC
Format/Info                              : Advanced Video Codec
Format profile                           : [email protected]
Format settings                          : CABAC / 5 Ref Frames
Format settings, CABAC                   : Yes
Format settings, Reference frames        : 5 frames
Codec ID                                 : V_MPEG4/ISO/AVC
Duration                                 : 1 h 27 min
Bit rate                                 : 4 802 kb/s
Width                                    : 1 920 pixels
Height                                   : 1 080 pixels
Display aspect ratio                     : 16:9
Frame rate mode                          : Constant
Frame rate                               : 25.000 FPS
Color space                              : YUV
Chroma subsampling                       : 4:2:0
Bit depth                                : 8 bits
Scan type                                : Progressive
Bits/(Pixel*Frame)                       : 0.093
Stream size                              : 2.92 GiB (89%)
Writing library                          : core 155 r2901 7d0ff22
Encoding settings                        : cabac=1 / ref=5 / deblock=1:-3:-3 / analyse=0x3:0x113 / me=umh / subme=7 / psy=1 / psy_rd=1.00:0.00 / mixed_ref=1 / me_range=16 / chroma_me=1 / trellis=1 / 8x8dct=1 / cqm=0 / deadzone=21,11 / fast_pskip=1 / chroma_qp_offset=-2 / threads=12 / lookahead_threads=2 / sliced_threads=0 / nr=0 / decimate=1 / interlaced=0 / bluray_compat=0 / constrained_intra=0 / bframes=3 / b_pyramid=2 / b_adapt=2 / b_bias=0 / direct=3 / weightb=1 / open_gop=0 / weightp=2 / keyint=250 / keyint_min=25 / scenecut=40 / intra_refresh=0 / rc_lookahead=50 / rc=crf / mbtree=1 / crf=20.0 / qcomp=0.60 / qpmin=0 / qpmax=69 / qpstep=4 / vbv_maxrate=62500 / vbv_bufsize=78125 / crf_max=0.0 / nal_hrd=none / filler=0 / ip_ratio=1.40 / aq=1:1.00
Language                                 : German
Default                                  : Yes
Forced                                   : No
Color range                              : Limited
Color primaries                          : BT.709
Transfer characteristics                 : BT.709
Matrix coefficients                      : BT.709

Audio #1
ID                                       : 2
Format                                   : AC-3
Format/Info                              : Audio Coding 3
Commercial name                          : Dolby Digital
Codec ID                                 : A_AC3
Duration                                 : 1 h 27 min
Bit rate mode                            : Constant
Bit rate                                 : 192 kb/s
Channel(s)                               : 2 channels
Channel layout                           : L R
Sampling rate                            : 48.0 kHz
Frame rate                               : 31.250 FPS (1536 SPF)
Compression mode                         : Lossy
Delay relative to video                  : -5 ms
Stream size                              : 120 MiB (4%)
Language                                 : Ukrainian
Service kind                             : Complete Main
Default                                  : Yes
Forced                                   : No

Audio #2
ID                                       : 3
Format                                   : AC-3
Format/Info                              : Audio Coding 3
Commercial name                          : Dolby Digital
Codec ID                                 : A_AC3
Duration                                 : 1 h 27 min
Bit rate mode                            : Constant
Bit rate                                 : 384 kb/s
Channel(s)                               : 2 channels
Channel layout                           : L R
Sampling rate                            : 48.0 kHz
Frame rate                               : 31.250 FPS (1536 SPF)
Compression mode                         : Lossy
Stream size                              : 239 MiB (7%)
Language                                 : German
Service kind                             : Complete Main
Default                                  : No
Forced                                   : No

Скріншоти



Джерело:


 Трекер:    Зареєстрований   

Завантажити / скачати фільм українською



відео для новачків



 Зареєстрований:   2020-10-24 21:09
 Розмір:   3.27 GB 
 Оцінка фільму:   8.5/10 (Голосів: 2)
   
waldi-hurtom 
VIP


З нами з: 07.10.12
Востаннє: 26.01.21
Повідомлень: 1256

2021-01-14 22:54  
На диво непоганий різдвяний фільм. Дякую за реліз! 7 з 10
Ваш часовий пояс: GMT + 2 Години

Нова тема   Відповісти