Секрет Келсу / Таємниця абатства Келс / The Secret of Kells (2009) 1080p H.265 Ukr/Eng | Sub Ukr/Eng

Нові коментарі

Нова тема   Відповісти
Автор Повідомлення
Anonymous 







2020-10-24 20:46  
Секрет Келсу / Таємниця абатства Келс / The Secret of Kells (2009) 1080p H.265 Ukr/Eng | Sub Ukr/Eng

Секрет Келсу / Таємниця абатства Келс / The Secret of Kells (2009) 1080p H.265 Ukr/Eng | Sub Ukr/Eng


Жанр: пригодницький, фентезі, анімація
Країна: Франція, Бельгія, Ірландія
Кінокомпанія: Cartoon Saloon Les Armateurs France 2 Cinéma Vivi Film
Режисер: Том Мур, Нора Твомі
Актори: Брендан Ґлісон, Лаям Гурікан, Мік Лаллі, Майкл МакҐрет, Еван МакҐуайр, Крістен Муні, Пол Тілак, Пол Юнґ

Сюжет:
Ірландія, 9 століття. В абатстві Келс, яким керує настоятель Келах, живе маленький хлопчик на ім'я Брендан. Йому 12 років, і він разом з іншими ченцями старанно працює над зміцненням стін абатства для захисту від нападу норманів.

Одного дня в абатство приходить брат Ейдан, відомий майстер-ілюстратор та хранитель дивовижної книги з Іони. З цієї миті Брендану відкривається нове життя, сповнене пригод, в яких йому будуть допомагати нові друзі, кішка Пангур Бан і лісова фея Ешлінг.

Тривалість: 01:18:44
Якість:

Відео:
кодек: H.265 (HEVC)
розмір кадру: 1920 x 1080
бітрейт: 3 945 кб/с
бітова глибина: 10 біт

Увага! Перед завантаженням переконайтесь, що ваш пристрій відтворення (та/або ПЗ) підтримує H.265 (HEVC)

Аудіо # 1:
мова: українська
переклад: багатоголосий закадровий
кодек: AC-3 2.0
бітрейт: 192 кб/с

Аудіо # 2:
мова: англійська
переклад: оригінал
кодек: AC-3 5.1
бітрейт: 640 кб/с

Субтитри # 1: (Full by Gedet)
мова: українська
тип: програмні (м'які)
формат: *.

Субтитри # 2-3: (Full, SDH)
мова: англійська
тип: програмні (м'які)
формат: *.srt


Info
Код:
==============================
x265 [info]: frame I: Avg QP:15.90 kb/s
x265 [info]: frame P: Avg QP:17.83 kb/s
x265 [info]: frame B: Avg QP:20.45 kb/s
==============================
General
Unique ID                                : 77488390139259817918087153899108799178 (0x3A4BB8996E14ECF6CA8E29F1856392CA)
Complete name                            : The Secret Of Kells (2009) 1080p H.265 [UKR_ENG] [Hurtom].
Format                                   :
Format version                           : Version 4
File size                                : 2.63 GiB
Duration                                 : 1 h 19 min
Overall bit rate                         : 4 766 kb/s
Movie name                               : Секрет Келсу / The Secret of Kells (2009)
Encoded date                             : UTC 2020-10-24 18:39:12
Writing application                      : v20.0.0 ('I Am The Sun') 64-bit
Writing library                          : libebml v1.3.5 + v1.4.8
Cover                                    : Yes
Attachments                              : Cover.jpg

Video
ID                                       : 1
Format                                   : HEVC
Format/Info                              : High Efficiency Video Coding
Format profile                           : Main [email protected]@High
Codec ID                                 : V_MPEGH/ISO/HEVC
Duration                                 : 1 h 18 min
Bit rate                                 : 3 945 kb/s
Width                                    : 1 920 pixels
Height                                   : 1 080 pixels
Display aspect ratio                     : 16:9
Frame rate mode                          : Constant
Frame rate                               : 23.976 (23976/1000) FPS
Original frame rate                      : 23.976 (24000/1001) FPS
Color space                              : YUV
Chroma subsampling                       : 4:2:0
Bit depth                                : 10 bits
Bits/(Pixel*Frame)                       : 0.079
Stream size                              : 2.17 GiB (82%)
Title                                    : Секрет Келсу / The Secret of Kells (2009)
Writing library                          : x265 3.4+10-g25b2c0703:[Windows][MSVC 1927][64 bit] 10bit
Encoding settings                        : cpuid=1111039 / frame-threads=4 / numa-pools=16 / wpp / no-pmode / no-pme / no-psnr / no-ssim / log-level=2 / input-csp=1 / input-res=1920x1080 / interlace=0 / total-frames=113271 / level-idc=41 / high-tier=1 / uhd-bd=0 / ref=5 / no-allow-non-conformance / no-repeat-headers / annexb / no-aud / no-hrd / info / hash=0 / no-temporal-layers / open-gop / min-keyint=23 / keyint=240 / gop-lookahead=0 / bframes=12 / b-adapt=2 / b-pyramid / bframe-bias=0 / rc-lookahead=60 / lookahead-slices=4 / scenecut=40 / hist-scenecut=0 / radl=0 / no-splice / no-intra-refresh / ctu=32 / min-cu-size=8 / rect / amp / max-tu-size=32 / tu-inter-depth=4 / tu-intra-depth=4 / limit-tu=1 / rdoq-level=2 / dynamic-rd=0.00 / no-ssim-rd / signhide / no-tskip / nr-intra=0 / nr-inter=0 / no-constrained-intra / no-strong-intra-smoothing / max-merge=4 / limit-refs=2 / limit-modes / me=3 / subme=7 / merange=57 / temporal-mvp / no-frame-dup / no-hme / weightp / weightb / no-analyze-src-pics / deblock=-3:-3 / no-sao / no-sao-non-deblock / rd=6 / selective-sao=0 / no-early-skip / no-rskip / no-fast-intra / no-tskip-fast / no-cu-lossless / no-b-intra / no-splitrd-skip / rdpenalty=0 / psy-rd=2.00 / psy-rdoq=1.00 / no-rd-refine / no-lossless / cbqpoffs=0 / crqpoffs=0 / rc=crf / crf=20.0 / qcomp=0.70 / qpstep=4 / stats-write=0 / stats-read=0 / vbv-maxrate=50000 / vbv-bufsize=50000 / vbv-init=0.9 / crf-max=0.0 / crf-min=0.0 / ipratio=1.40 / pbratio=1.30 / aq-mode=1 / aq-strength=1.00 / no-cutree / zone-count=0 / no-strict-cbr / qg-size=32 / no-rc-grain / qpmax=69 / qpmin=0 / no-const-vbv / sar=1 / overscan=0 / videoformat=5 / range=0 / colorprim=1 / transfer=1 / colormatrix=1 / chromaloc=0 / display-window=0 / cll=0,0 / min-luma=0 / max-luma=1023 / log2-max-poc-lsb=8 / vui-timing-info / vui-hrd-info / slices=1 / no-opt-qp-pps / no-opt-ref-list-length-pps / no-multi-pass-opt-rps / scenecut-bias=0.05 / hist-threshold=0.01 / no-opt-cu-delta-qp / no-aq-motion / no-hdr10 / no-hdr10-opt / no-dhdr10-opt / no-idr-recovery-sei / analysis-reuse-level=0 / analysis-save-reuse-level=0 / analysis-load-reuse-level=0 / scale-factor=0 / refine-intra=0 / refine-inter=0 / refine-mv=1 / refine-ctu-distortion=0 / no-limit-sao / ctu-info=0 / no-lowpass-dct / refine-analysis-type=0 / copy-pic=1 / max-ausize-factor=1.0 / no-dynamic-refine / no-single-sei / no-hevc-aq / no-svt / no-field / qp-adaptation-range=1.00 / no-scenecut-aware-qpconformance-window-offsets / right=0 / bottom=0 / decoder-max-rate=0
Default                                  : Yes
Forced                                   : No
Color range                              : Limited
Color primaries                          : BT.709
Transfer characteristics                 : BT.709
Matrix coefficients                      : BT.709

Audio #1
ID                                       : 2
Format                                   : AC-3
Format/Info                              : Audio Coding 3
Commercial name                          : Dolby Digital
Codec ID                                 : A_AC3
Duration                                 : 1 h 18 min
Bit rate mode                            : Constant
Bit rate                                 : 192 kb/s
Channel(s)                               : 2 channels
Channel layout                           : L R
Sampling rate                            : 48.0 kHz
Frame rate                               : 31.250 FPS (1536 SPF)
Compression mode                         : Lossy
Stream size                              : 108 MiB (4%)
Title                                    : / 2.0 Ch / 192 kbps / MVO / Три крапки
Language                                 : Ukrainian
Service kind                             : Complete Main
Default                                  : Yes
Forced                                   : Yes

Audio #2
ID                                       : 3
Format                                   : AC-3
Format/Info                              : Audio Coding 3
Commercial name                          : Dolby Digital
Codec ID                                 : A_AC3
Duration                                 : 1 h 19 min
Bit rate mode                            : Constant
Bit rate                                 : 640 kb/s
Channel(s)                               : 6 channels
Channel layout                           : L R C LFE Ls Rs
Sampling rate                            : 48.0 kHz
Frame rate                               : 31.250 FPS (1536 SPF)
Compression mode                         : Lossy
Stream size                              : 362 MiB (13%)
Title                                    : / 5.1 Ch / 640 kbps / Original
Language                                 : English
Service kind                             : Complete Main
Default                                  : No
Forced                                   : No

Text #1
ID                                       : 4
Format                                   :
Codec ID                                 : S_TEXT/
Codec ID/Info                            : Advanced Sub Station Alpha
Duration                                 : 1 h 11 min
Bit rate                                 : 97 b/s
Count of elements                        : 732
Compression mode                         : Lossless
Stream size                              : 50.7 KiB (0%)
Title                                    : Full by Gedet
Language                                 : Ukrainian
Default                                  : No
Forced                                   : No

Text #2
ID                                       : 5
Format                                   : UTF-8
Codec ID                                 : S_TEXT/UTF8
Codec ID/Info                            : UTF-8 Plain Text
Duration                                 : 1 h 11 min
Bit rate                                 : 41 b/s
Count of elements                        : 705
Stream size                              : 21.5 KiB (0%)
Title                                    : Full
Language                                 : English
Default                                  : No
Forced                                   : No

Text #3
ID                                       : 6
Format                                   : UTF-8
Codec ID                                 : S_TEXT/UTF8
Codec ID/Info                            : UTF-8 Plain Text
Duration                                 : 1 h 11 min
Bit rate                                 : 48 b/s
Count of elements                        : 923
Stream size                              : 25.3 KiB (0%)
Title                                    : SDH
Language                                 : English
Default                                  : No
Forced                                   : No

Menu
00:00:00.000                             : en:I Have Seen…
00:02:13.300                             : en:Beyon the Walls
00:10:57.407                             : en:The Cat, the Illuminator… and the Page
00:19:49.897                             : en:Aisling's Forest
00:31:47.656                             : en:Forbidden Fruits
00:35:53.693                             : en:Visions of Horror
00:43:01.287                             : en:Cellach's Punishment
00:49:01.522                             : en:Light and Darkness
00:54:30.225                             : en:A Forbidden Masterpiece
00:58:43.770                             : en:Barbarian Invasion
01:06:47.003                             : en:A Light of Hope
01:13:25.568                             : en:Credits
Світлини




Джерело: &
Особиста оцінка: 10 - без зайвих вагань рекомендую всім!


Авторський реліз (завантажувати можна без реєстрації)
 Трекер:    Зареєстрований   

Завантажити / скачати мультфільм українською



відео для новачків



 Зареєстрований:   2020-10-24 20:46
 Розмір:   2.63 GB 
 Оцінка мультфільму:   9.9/10 (Голосів: 10)
   
Інші релізи
alexhap 
Частий відвідувач


З нами з: 23.09.16
Востаннє: 05.03.21
Повідомлень: 34

2020-10-24 23:12  
нарешті гарно спакований реліз.... за 3+ роки вперше таке бачу Happy
просто бува зачіпає 30+ мбіт в hevc
ДЯКУЮ

Ваш часовий пояс: GMT + 2 Години

Нова тема   Відповісти