Галерея розбитих сердець / The Broken Hearts Gallery (2020) 1080p Eng | Sub Ukr/Eng

Нові коментарі

Нова тема   Відповісти
Автор Повідомлення
Anonymous 







2020-10-23 14:03  
Галерея розбитих сердець / The Broken Hearts Gallery (2020) 1080p Eng | Sub Ukr/Eng

Галерея розбитих сердець / The Broken Hearts Gallery (2020) 1080p Eng | Sub Ukr/Eng


Жанр: комедія, мелодрама
Країна: США, Канада



Кінокомпанія: No Trace Camping
Режисер: Наталі Крінскі / Natalie Krinsky
Актори: Джеральдін Вісванатхан, Дакре Монтгомері, Уткарш Амбудкар, Моллі Ґордон, Філліпа Су, Сукі Вотергаус, Шейла Маккарті, Бернадетт Пітерс та інші

Сюжет:
Після розриву молода жінка вирішує створити галерею, де люди можуть залишити дрібнички з минулих стосунків.
Офіційний трейлер:

Рейтинг MPAA: PG-13 - дітям до 13 років перегляд не бажаний
Вікова категорія: 12+
Тривалість: 01:48:50
Якість: 1080p
Відео:
кодек:
розмір кадру: 1920х1080
бітрейт: 7287 кб/с

Аудіо:
мова: англійська
переклад: оригінал
кодек: 5.1
бітрейт: 384 кб/с

Субтитри # 1:
мова: українська
тип: програмні (м'які)
формат: *.srt
переклад: офіційний, Всеволод Іващенко

Субтитри # 2:
мова: англійська
тип: програмні (м'які)
формат: *.srt
Info
Код:
Complete name               : The Broken Hearts Gallery (2020) [Eng sub.Ukr,Eng] 1080p [Hurtom].
Format                      :
Format version              : Version 4
File size                   : 5.83 GiB
Duration                    : 1 h 48 min
Overall bit rate            : 7 674 kb/s
Movie name                  : Галерея розбитих сердець / The Broken Hearts Gallery (2020) [Eng sub.Ukr,Eng] 1080p [Hurtom]
Cover                       : Yes
Attachments                 : cover.jpg

Video
ID                          : 1
Format                      : AVC
Format/Info                 : Advanced Video Codec
Format profile              : [email protected]
Format settings             : CABAC / 2 Ref Frames
Format settings, CABAC      : Yes
Format settings, Reference  : 2 frames
Codec ID                    : V_MPEG4/ISO/AVC
Duration                    : 1 h 48 min
Bit rate                    : 7 287 kb/s
Width                       : 1 920 pixels
Height                      : 1 080 pixels
Display aspect ratio        : 16:9
Frame rate mode             : Constant
Frame rate                  : 23.976 (24000/1001) FPS
Color space                 : YUV
Chroma subsampling          : 4:2:0
Bit depth                   : 8 bits
Scan type                   : Progressive
Bits/(Pixel*Frame)          : 0.147
Stream size                 : 5.54 GiB (95%)
Title                       : Галерея розбитих сердець / The Broken Hearts Gallery (2020) 1080p
Writing library             : core 155 r2901 7d0ff22
Language                    : English
Default                     : Yes
Forced                      : No
Color range                 : Limited
Color primaries             : BT.709
Transfer characteristics    : BT.709
Matrix coefficients         : BT.709

Audio
ID                          : 2
Format                      : AC-3
Format/Info                 : Audio Coding 3
Commercial name             : Dolby Digital
Codec ID                    : A_AC3
Duration                    : 1 h 48 min
Bit rate mode               : Constant
Bit rate                    : 384 kb/s
Channel(s)                  : 6 channels
Channel layout              : L R C LFE Ls Rs
Sampling rate               : 48.0 kHz
Frame rate                  : 31.250 FPS (1536 SPF)
Compression mode            : Lossy
Stream size                 : 299 MiB (5%)
Language                    : English
Service kind                : Complete Main
Default                     : Yes
Forced                      : No

Text #1
ID                          : 3
Format                      : UTF-8
Codec ID                    : S_TEXT/UTF8
Codec ID/Info               : UTF-8 Plain Text
Duration                    : 1 h 47 min
Bit rate                    : 146 b/s
Count of elements           : 1699
Stream size                 : 116 KiB (0%)
Title                       : Ukr Full [official]
Language                    : Ukrainian
Default                     : Yes
Forced                      : Yes

Text #2
ID                          : 4
Format                      : UTF-8
Codec ID                    : S_TEXT/UTF8
Codec ID/Info               : UTF-8 Plain Text
Duration                    : 1 h 44 min
Bit rate                    : 83 b/s
Count of elements           : 1641
Stream size                 : 64.0 KiB (0%)
Title                       : Eng Full
Language                    : English
Default                     : No
Forced                      : No



Джерело: &


 Трекер:    Зареєстрований   

Завантажити / скачати фільм українською



відео для новачків



 Зареєстрований:   2020-10-23 14:03
 Розмір:   5.83 GB 
 Оцінка фільму:   9.5/10 (Голосів: 4)
 ЗАЛИШАЙТЕСЬ ЯКОМОГА ДОВШЕ НА РОЗДАЧІ! ЗАВАНТАЖИВ САМ - ДАЙ ЗАВАНТАЖИТИ ІНШИМ!
   
pankos 
Частий відвідувач


З нами з: 16.01.11
Востаннє: 04.12.20
Повідомлень: 42

2020-10-23 18:57  
А що означає перше речення? Ви і в реальному житті так говорите?
Ваш часовий пояс: GMT + 2 Години

Нова тема   Відповісти