Алієніст (Сезон 2) / The Alienist (Season 2) (2020) 720p Eng | Sub Ukr/Eng

Нові коментарі

Нова тема   Відповісти
Автор Повідомлення
Anonymous 







2020-10-23 11:33  
Алієніст (Сезон 2) / The Alienist (Season 2) (2020) 720p Eng | Sub Ukr/Eng



Жанр: драма, кримінальний, психологічний, трилер
Країна: США



Кінокомпанія: TNT
Режисер: Якоб Вербрюґґен, Пако Кабезас, Джеймс Гейвз, Джеймі Пейн, Девід Петрарка
Актори: Даніель Брюль, Дакота Феннінг, Люк Еванс, Браян Ґераті, Роберт Рей Віздом, Даґлес Сміт, К’оріанка Кілчер, Метью Шир, Метт Лінц, Девід Вілмот

Сюжет:
У другому сезоні наші герої розслідують викрадення та вбивства немовлят.


Тривалість: 1 серія: від 46:00 - 59:00 (цілком серій: 8 з 8)
Перелік серій
1.Ex Ore Infantium
2.Something Wicked
3.Labyrinth
4.Gilded Cage
5.Belly of the Beast
6.Memento Mori
7.Last Exit to Brooklyn
8.Better Angels
Якість:
Відео:
кодек:
розмір кадру: 1280 х 640
бітрейт: 4000 - 6000 кб/с

Аудіо:
мова: англійська
переклад: оригінал
кодек: 5.1
бітрейт: 640 кб/с

Субтитри:
мова: українська
тип: програмні (м'які)
формат: *.srt

Субтитри:
мова: англійська
тип: програмні (м'які)
формат: *.srt
Скріншоти

















МІ
Format :
Format version : Version 4
File size : 1.55 GiB
Duration : 46 min 59 s
Overall bit rate : 4 724 kb/s
Encoded date : UTC 2020-10-23 06:30:29
Writing application : v47.0.0 ('Black Flag') 64-bit
Writing library : libebml v1.3.10 + v1.5.2
Cover : Yes
Attachments : cover.jpg

Video
ID : 1
Format : AVC
Format/Info : Advanced Video Codec
Format profile : [email protected]
Format settings : CABAC / 4 Ref Frames
Format settings, CABAC : Yes
Format settings, Reference : 4 frames
Codec ID : V_MPEG4/ISO/AVC
Duration : 46 min 59 s
Bit rate mode : Constant
Bit rate : 4 081 kb/s
Nominal bit rate : 6 000 kb/s
Width : 1 280 pixels
Height : 640 pixels
Display aspect ratio : 2.000
Frame rate mode : Constant
Frame rate : 23.976 (24000/1001) FPS
Color space : YUV
Chroma subsampling : 4:2:0
Bit depth : 8 bits
Scan type : Progressive
Bits/(Pixel*Frame) : 0.208
Stream size : 1.34 GiB (86%)
Language : English
Default : Yes
Forced : No
Color range : Limited
Color primaries : BT.709
Transfer characteristics : BT.709
Matrix coefficients : BT.709

Audio
ID : 2
Format : E-AC-3
Format/Info : Enhanced AC-3
Commercial name : Dolby Digital Plus
Codec ID : A_EAC3
Duration : 46 min 59 s
Bit rate mode : Constant
Bit rate : 640 kb/s
Channel(s) : 6 channels
Channel layout : L R C LFE Ls Rs
Sampling rate : 48.0 kHz
Frame rate : 31.250 FPS (1536 SPF)
Compression mode : Lossy
Stream size : 215 MiB (14%)
Language : English
Service kind : Complete Main
Default : Yes
Forced : No

Text #1
ID : 3
Format : UTF-8
Codec ID : S_TEXT/UTF8
Codec ID/Info : UTF-8 Plain Text
Duration : 46 min 29 s
Bit rate : 93 b/s
Count of elements : 558
Stream size : 31.8 KiB (0%)
Title : Netflix
Language : Ukrainian
Default : Yes
Forced : No

Text #2
ID : 4
Format : UTF-8
Codec ID : S_TEXT/UTF8
Codec ID/Info : UTF-8 Plain Text
Duration : 44 min 30 s
Bit rate : 59 b/s
Count of elements : 594
Stream size : 19.3 KiB (0%)
Language : English
Default : No
Forced : No
Джерело:
Особиста оцінка: 9 - давно не бачив настільки якісне кіно



Бронзовий реліз (на рейтинг впливає 75% завантаженого)
 Трекер:    Зареєстрований   

Завантажити / скачати серіал українською



відео для новачків



 Зареєстрований:   2020-10-23 11:33
 Розмір:   10.31 GB 
 Оцінка серіалу:   10/10 (Голосів: 1)
   
Андрерад 
Свій


З нами з: 09.06.14
Востаннє: 03.12.20
Повідомлень: 77

2020-11-06 19:36  
сподобався! гарні декорації, відомі актори, детектив з любовною історією
Ваш часовий пояс: GMT + 2 Години

Нова тема   Відповісти