Робопотяги / Robot Trains (Сезон 2, 9 серій з 52) (2018) 1080p

Нові коментарі

Нова тема   Відповісти
Автор Повідомлення
sergiyko.5 
Забанено
Забанено


З нами з: 25.02.16
Востаннє: 29.10.20
Повідомлень: 3648

2020-10-22 14:34  
Всі одноіменні релізи на трекері

Робопотяги / Robot Trains (Сезон 2) (2018) 1080p


Робопотяги / Robot Trains (Сезон 2, 9 серій з 52) (2018)  1080p

Жанр: пригоди, сімейний
Країна: Південна Корея
Кінокомпанія: Formula Comics Entertainment
Режисер: Ю Лі

Сюжет:
Кей найсильніший в світі роботопотягів і тільки він може відкривати тунелі між зонами. Але в бою з охопленим вірусом потягом Дюком, Кей втратив пам’ять. І тепер його друзі намагаються допомогти йому згадати все!

Мультфільм «Робопотяги» розповість нам про синього потужного потяга Кея і його команду вірних друзів. Разом з ними ми буде прокладати нові залізні дороги між континентами і перемагати підступних ворогів. Кей і його друзі впораються з будь-якою проблемою, тому що вони не просто потяги! Вони – трансформери!

Вперед, потяги!




Тривалість: 1 серія: 00:12:58 (цілком серій: 9 з 52)
Якість:

Відео: кодек: розмір кадру: 1920 х 1080 бітрейт: 2000 кб/с
Аудіо: мова: українська озвучення: багатоголосе закадрове кодек: бітрейт: 192 кб/с
Озвучення:
Перелік серій
01.Emergency! Somebody help
02.Yeah. Waterland Waterpark
03.No, Kevin, Not again
04.Leave it to her. Genie the Detective
05.Maxie can do it. Maxie Power
06.Oh, Victor, Mr. Romantic
07.Let Gary's Wisdom Shine
08.Snap, Stay Away from that Camera

32.Good Bye, X Family
Про файл:
General
Unique ID : 23477035052037151896641674702555000810 (0x11A98331F808FE464EA8C20E56852FEA)
Complete name : C:\Users\Sergij\Pictures\Robot Trains S02 1080p \S02E02.Yeah. Waterland Waterpark.1080p..
Format :
Format version : Version 4
File size : 204 MiB
Duration : 12 min 57 s
Overall bit rate : 2 205 kb/s
Movie name : Robot Trains S02 1080p by sergiyko
Encoded date : UTC 2020-10-22 11:02:49
Writing application : v49.0.0 ('Sick Of Losing Soulmates') 64-bit
Writing library : libebml v1.4.0 + v1.6.1

Video
ID : 1
Format : AVC
Format/Info : Advanced Video Codec
Format profile : [email protected]
Format settings : CABAC / 3 Ref Frames
Format settings, CABAC : Yes
Format settings, Reference : 3 frames
Codec ID : V_MPEG4/ISO/AVC
Duration : 12 min 57 s
Bit rate : 2 011 kb/s
Width : 1 920 pixels
Height : 1 080 pixels
Display aspect ratio : 16:9
Frame rate mode : Constant
Frame rate : 25.000 FPS
Color space : YUV
Chroma subsampling : 4:2:0
Bit depth : 8 bits
Scan type : Progressive
Bits/(Pixel*Frame) : 0.039
Stream size : 187 MiB (91%)
Title : S02E02.Yeah! Waterland Waterpark
Writing library : core 155 r2901 7d0ff22
Language : English
Default : Yes
Forced : No
Color range : Limited
Color primaries : BT.709
Transfer characteristics : BT.709
Matrix coefficients : BT.709

Audio
ID : 2
Format : AC-3
Format/Info : Audio Coding 3
Commercial name : Dolby Digital
Codec ID : A_AC3
Duration : 12 min 57 s
Bit rate mode : Constant
Bit rate : 192 kb/s
Channel(s) : 2 channels
Channel layout : L R
Sampling rate : 48.0 kHz
Frame rate : 31.250 FPS (1536 SPF)
Compression mode : Lossy
Stream size : 17.8 MiB (9%)
Title : MVO 2ch | Піксель
Language : Ukrainian
Service kind : Complete Main
Default : Yes
Forced : No
Скріншоти:


Запис/синхронізація: sergiyko


Бронзовий реліз (на рейтинг впливає 75% завантаженого)
 Трекер:    Зареєстрований   

Завантажити / скачати мультфільм українською



відео для новачків



 Зареєстрований:   2020-10-22 14:34
 Розмір:   1.67 GB 
 Оцінка мультсеріалу:   10/10 (Голосів: 5)
   
san4o0609 
Новенький


З нами з: 08.07.11
Востаннє: 07.04.21
Повідомлень: 1

2020-11-27 19:02  
Коли можна очікувати нових серій?
Ваш часовий пояс: GMT + 2 Години

Нова тема   Відповісти