Вулиця Далматинців 101 / 101 Dalmatian Street (Сезон 1, 8 серії з 26) (2018) 1080p

Нові коментарі

Нова тема   Відповісти
Автор Повідомлення
sergiyko.5 
Забанено
Забанено


З нами з: 25.02.16
Востаннє: 29.10.20
Повідомлень: 3648

2020-10-22 10:31  
Вулиця Далматинців 101 / 101 Dalmatian Street (Сезон 1) (2018) 1080p


Вулиця Далматинців 101 / 101 Dalmatian Street (Сезон 1, 8 серії з 26) (2018) 1080p

Жанр: дитячий, комедія, сімейний
Країна: США, Велика Британія
Кінокомпанія: Walt Disney Television Animation
Режисер: Міклош Вайгерт

Сюжет:
Це комедійний серіал, заснований на вільній інтерпретації мультфільму 1961 року. У ньому розповідається про життя великої собачої сім'ї, в якій є тато, мама і, без малого, 99 щенят. Батько сімейства - Доуг (американський далматин, який переїхав до Лондона) трудиться в пожежній бригаді, мама - Делайл (британська собака, одна з нащадків Понго і Педді) стежить за численним потомством. Але в центрі уваги завжди виявляються старші брат і сестра - Доллі і Ділан. До слова, імена всіх членів плямистої сім'ї починаються з літери "Д".




Тривалість: 1 серія 00:21:15 (цілком серій: 8 з 26)
Якість:

Відео: кодек: розмір кадру: 1920 х 1080 бітрейт: 7300 кб/с
Аудіо 1: мова: українська озвучення: професійне дубльоване кодек: MP2 2.0 бітрейт: 192 кб/с
Аудіо 2: мова: українська озвучення: професійне дубльоване кодек: 2.0 бітрейт: 128 кб/с
Озвучення:

Примітка: звук записано з трансляції каналу Т2.
Перелік серій
01.Dog's Best Friend-Boom Night
02.Power to the Puppies-Who the Dog Do You Think You Are
Про файл:
General
Unique ID : 13339756467499669515199813266302723851 (0xA0924C5CC4E96D88F8526BAF8AE670B)
Complete name : D:\Documents\Torrents\MULTSER_2\101 Dalmatian Street S01 1080p \S01E02.Power to the Puppies-Who the Dog Do You Think You Are.1080p..
Format :
Format version : Version 4
File size : 1.04 GiB
Duration : 21 min 14 s
Overall bit rate : 7 022 kb/s
Movie name : 101 Dalmatian Street S01 by sergiyko
Encoded date : UTC 2020-10-21 20:48:44
Writing application : v49.0.0 ('Sick Of Losing Soulmates') 64-bit
Writing library : libebml v1.4.0 + v1.6.1

Video
ID : 1
Format : AVC
Format/Info : Advanced Video Codec
Format profile : [email protected]
Format settings : CABAC / 4 Ref Frames
Format settings, CABAC : Yes
Format settings, Reference : 4 frames
Codec ID : V_MPEG4/ISO/AVC
Duration : 21 min 14 s
Bit rate : 6 699 kb/s
Width : 1 920 pixels
Height : 1 080 pixels
Display aspect ratio : 16:9
Frame rate mode : Constant
Frame rate : 25.000 FPS
Color space : YUV
Chroma subsampling : 4:2:0
Bit depth : 8 bits
Scan type : Progressive
Bits/(Pixel*Frame) : 0.129
Stream size : 1 018 MiB (95%)
Title : S01E02.Power to the Puppies-Who the Dog Do You Think You Are
Language : English
Default : Yes
Forced : No

Audio #1
ID : 2
Format : MPEG Audio
Format version : Version 1
Format profile : Layer 2
Format settings : Joint stereo / Intensity Stereo + MS Stereo
Codec ID : A_MPEG/L2
Codec ID/Hint : MP2
Duration : 21 min 14 s
Bit rate mode : Constant
Bit rate : 192 kb/s
Channel(s) : 2 channels
Sampling rate : 48.0 kHz
Frame rate : 41.667 FPS (1152 SPF)
Compression mode : Lossy
Delay relative to video : -80 ms
Stream size : 29.2 MiB (3%)
Title : DUB MP2 2ch | ПлюсПлюс
Language : Ukrainian
Default : Yes
Forced : No

Audio #2
ID : 3
Format : LC
Format/Info : Advanced Audio Codec Low Complexity
Codec ID : A_AAC-2
Duration : 21 min 14 s
Bit rate : 129 kb/s
Channel(s) : 2 channels
Channel layout : L R
Sampling rate : 48.0 kHz
Frame rate : 46.875 FPS (1024 SPF)
Compression mode : Lossy
Stream size : 19.5 MiB (2%)
Title : DUB 2ch | ПлюсПлюс
Language : Ukrainian
Default : No
Forced : No
Скріншоти:


Запис/зведення: sergiyko


Бронзовий реліз (на рейтинг впливає 75% завантаженого)
 Трекер:    Зареєстрований   

Завантажити / скачати мультфільм українською



відео для новачків



 Зареєстрований:   2020-10-27 23:48
 Розмір:   8.06 GB 
 Оцінка мультсеріалу:   9.5/10 (Голосів: 11)
   
bot 
робот


З нами з: 30.09.07
Востаннє: 26.05.05
Повідомлень: 27892

2020-10-22 10:38  
Тему перенесено з Мультфільми в HD до форуму Мультсеріали в HD


sergiyko.5

sergiyko.5 
Забанено
Забанено


З нами з: 25.02.16
Востаннє: 29.10.20
Повідомлень: 3648

2020-10-27 23:48  
Додав 3-8 серії.
Tom_dyakuyu 
Новенький


З нами з: 08.11.20
Востаннє: 08.11.20
Повідомлень: 1

2020-11-08 23:00  
Дякую за 8 серій! І це все, а чого так мало та коли будуть наступні серії? Відпишіть будь ласка! Rolleyes (1)
Danyles1ko 
Новенький


З нами з: 28.01.19
Востаннє: 08.03.21
Повідомлень: 24

2020-11-08 23:28  
Ну бачите, автора цього релізу забанили, і тому здається більше ніхто не може додати сюди інші серії. Але я не знаюсь на багато чому, бо я сам ще новачок.
Djek31 
Новенький


З нами з: 22.12.16
Востаннє: 14.04.21
Повідомлень: 16

2021-01-10 19:28  
Прошу вас розблокуйте sergiyko.5 бо хто на вашу думку, буде далі викладати серіі різних мультфльмів. Який між вами конфлікт стався я не заю. Лише прошу вас як адміністратора, дати йому ще один шанс.
Masanchick 
VIP


З нами з: 08.04.11
Востаннє: 15.04.21
Повідомлень: 1624

2021-01-10 19:32  
Djek31
Написав вам в пп де шукати Сергійка, всі його релізи там

Ваш часовий пояс: GMT + 2 Години

Нова тема   Відповісти