Ліга Чемпіонів 2020-2021 / Група B / 1-й тур / Реал Мадрид (Іспанія) - Шахтар Донецьк (Україна) (21.10.2020) 1080p

Нові коментарі

Нова тема   Відповісти
Автор Повідомлення
sergiyko.5 
Забанено
Забанено


З нами з: 25.02.16
Востаннє: 29.10.20
Повідомлень: 3648

2020-10-22 09:24  
Ліга Чемпіонів 2020-2021 / Група B / 1-й тур / Реал Мадрид (Іспанія) - Шахтар Донецьк (Україна) (21.10.2020) 1080p


Ліга Чемпіонів 2020-2021 / Група B / 1-й тур / Реал Мадрид (Іспанія) - Шахтар Донецьк (Україна) (21.10.2020) 1080p

Телеканал: Volia Football 1 HD
Коментатор: Сергій Пейчев

Опис:
Ліга Чемпіонів 2020-2021 Група B / 1-й тур / Реал Мадрид (Іспанія) - Шахтар Донецьк (Україна)

Якість:

Відео: кодек: розмір кадру: 1920x1080 бітрейт: ~6200 кб/с
Аудіо: мова: українська кодек: 2.0 бітрейт: 192 кб/с
Склад команд:
Тривалість:
01:47:30
Про файл:
General
Unique ID : 256364751645199922326483472047081133941 (0xC0DE0E20CB2147F860E101454DB21775)
Complete name : D:\Documents\Torrents\SPORT\Futbol\CL.2020-21.Group B.Real Madrid-FC Shakhtar Donetsk.1080p..
Format :
Format version : Version 4
File size : 4.77 GiB
Duration : 1 h 47 min
Overall bit rate mode : Variable
Overall bit rate : 6 355 kb/s
Movie name : CL.2020-21.Group B.Real Madrid-FC Shakhtar Donetsk by sergiyko
Encoded date : UTC 2020-10-21 20:35:57
Writing application : v49.0.0 ('Sick Of Losing Soulmates') 64-bit
Writing library : libebml v1.4.0 + v1.6.1

Video
ID : 1
Format : AVC
Format/Info : Advanced Video Codec
Format profile : [email protected]
Format settings : CABAC / 2 Ref Frames
Format settings, CABAC : Yes
Format settings, Reference : 2 frames
Codec ID : V_MPEG4/ISO/AVC
Duration : 1 h 47 min
Bit rate mode : Variable
Bit rate : 6 159 kb/s
Maximum bit rate : 7 500 kb/s
Width : 1 920 pixels
Height : 1 080 pixels
Display aspect ratio : 16:9
Frame rate mode : Constant
Frame rate : 25.000 FPS
Color space : YUV
Chroma subsampling : 4:2:0
Bit depth : 8 bits
Scan type : Progressive
Bits/(Pixel*Frame) : 0.119
Stream size : 4.63 GiB (97%)
Language : English
Default : Yes
Forced : No

Audio
ID : 2
Format : LC
Format/Info : Advanced Audio Codec Low Complexity
Codec ID : A_AAC-2
Duration : 1 h 47 min
Bit rate : 192 kb/s
Channel(s) : 2 channels
Channel layout : L R
Sampling rate : 48.0 kHz
Frame rate : 46.875 FPS (1024 SPF)
Compression mode : Lossy
Stream size : 149 MiB (3%)
Language : Ukrainian
Default : Yes
Forced : No
Скріншоти:


Запис: sergiyko


Бронзовий реліз (на рейтинг впливає 75% завантаженого)
 Трекер:    Зареєстрований   

Завантажити / скачати торрент



відео для новачків



 Зареєстрований:   2020-10-22 09:24
 Розмір:   4.77 GB 
 Оцінка:   8.2/10 (Голосів: 5)
   
staf777 
Відео Гуртом - підтримка та поширення
Відео Гуртом - підтримка та поширення


З нами з: 16.11.16
Востаннє: 25.02.21
Повідомлень: 5054

2020-10-22 10:30  
От так з грандами треба грати - молодці
tilda4334 
Відео Гуртом - фільмокрай
Відео Гуртом - фільмокрай


З нами з: 15.08.14
Востаннє: 25.02.21
Повідомлень: 1410

2020-10-22 12:31  
Реал звісно розчарував, думав вони всерйоз сприймуть Шахтар, повторилася ситуація як була зі збірною у матчі проти Іспанії.

staf777 
Відео Гуртом - підтримка та поширення
Відео Гуртом - підтримка та поширення


З нами з: 16.11.16
Востаннє: 25.02.21
Повідомлень: 5054

2020-10-22 19:06  
sergiyko скажіть будь ласка Ви плануєте і на далі викладати матчі Шахти у ЛЧ - бо планую мати усі матчі Шахтара у цьому розіграші ЛЧ у колекції саме цікавить 1080
sergiyko.5 
Забанено
Забанено


З нами з: 25.02.16
Востаннє: 29.10.20
Повідомлень: 3648

2020-10-22 19:10  
staf777
Планую робити релізи з українськими клубами.

Deiv 
Поважний учасник


З нами з: 15.07.16
Востаннє: 22.02.21
Повідомлень: 189

2020-10-22 19:22  
Чудова гра! Маю надію Шахтар так само підійдуть до інших своїх суперників своєї групи , та покажуть такий же клас.
staf777 
Відео Гуртом - підтримка та поширення
Відео Гуртом - підтримка та поширення


З нами з: 16.11.16
Востаннє: 25.02.21
Повідомлень: 5054

2020-10-22 19:22  
sergiyko.5
Це добре - дякую за труди

pavlo-kyiv 
Свій


З нами з: 01.05.16
Востаннє: 24.02.21
Повідомлень: 55

2020-10-23 09:02  
Навіть динамівець визнає, що Шахтар дійсно гордість України!!!
staf777 
Відео Гуртом - підтримка та поширення
Відео Гуртом - підтримка та поширення


З нами з: 16.11.16
Востаннє: 25.02.21
Повідомлень: 5054

2020-10-23 09:10  
pavlo-kyiv
Згоден цілком - Дінамо буде ще довго жити великими совковими перемогами і плакати що нема грошей на норм трансфери...

Ваш часовий пояс: GMT + 2 Години

Нова тема   Відповісти