[Збір коштів] Знищення(Сезон 1, Епізод 03) / The Undoing(Season 1, Episode 03) (2020) Ukr/Eng | Sub Eng

Нові коментарі

Нова тема   Відповісти
Автор Повідомлення
dragheart 
Свій


З нами з: 27.01.16
Востаннє: 01.12.20
Повідомлень: 123

2020-10-21 14:45  
[Збір коштів] Знищення(Сезон 1, Епізод 03) / The Undoing(Season 1, Episode 03) (2020) Ukr/Eng | Sub Eng

[Збір коштів] Знищення(Сезон 1, Епізод 03) / The Undoing(Season 1, Episode 03) (2020) Ukr/Eng | Sub Eng


Подяка за постер : mrgalser


На озвучку серіалу проводиться збір коштів.

Щоб переказати кошти, тицьніть СЮДИ

Зібрано 1200 із 3000 грн.


Жанр: драма, трилер
Країна: США



Кінокомпанія: HBO
Режисер: Сюзанна Бір
Актори: Ніколь Кідман, Г’ю Ґрант, Едґар РамІрес, Дональд Сазерленд та інші

Сюжет:
Грейс - успішний терапевт з Нью-Йорка, у неї все добре: люблячий чоловік, чудовий син, багате життя. Невдовзі у Грейс вийде перша книга, в якій вона радить жінкам слухати інтуїцію і вірити першому враженню про чоловіків. Однак напередодні виходу зникає її чоловік, і казкове життя обертається низкою неприємних одкровень та PR-скандалом.


Трейлер українською.



Тривалість: 1 серія: ~55:00 (цілком серій:3 із 6)
Перелік серій
01. The Undoing
02. The Missing
03. Do No Harm
04. See No Evil
05. Trial by Fury
06. The Bloody Truth
Якість:
Відео:
кодек:
розмір кадру: 1280 х 720
бітрейт: 4031 кб/с

Аудіо # 1:
мова: українська
кодек: 5.1
бітрейт: 384 кб/с
переклад: багатоголосий закадровий | DubLiCat
ролі озвучують:(Olegolas, Оля Ілєнко, Тетяна Рябова, Олександра Ісаєнко, Євгеній Тітомир, Rainy984)

Аудіо # 2:
мова: англійська
переклад: оригінал
кодек: 5.1
бітрейт: 640 кб/с

Субтитри:
мова: англійська
тип: програмні (м'які)
формат: *.srt

Шукайте нашу сторінку на FaceBook: DubLcat
Info
General
Unique ID : 273152662626745891316161357343327717894 (0xCD7F4A0B40922D042A0C7550EA430A06)
Complete name : F:\The.Undoing.S01(DubLiCat).720.Ukr.Eng\The.Undoing.S01.E01(DubLiCat).720.Ukr.Eng.
Format :
Format version : Version 4 / Version 2
File size : 2.00 GiB
Duration : 55mn 34s
Overall bit rate : 5 158 Kbps
Encoded date : UTC 2020-11-11 16:39:19
Writing application : v23.0.0 ('The Bride Said No') 64-bit
Writing library : libebml v1.3.6 + v1.4.9
DURATION : 00:55:34.848000000
NUMBER_OF_FRAMES : 104214
NUMBER_OF_BYTES : 160072704
_STATISTICS_WRITING_APP : v23.0.0 ('The Bride Said No') 64-bit
_STATISTICS_WRITING_DATE_UTC : 2020-11-11 16:39:19
_STATISTICS_TAGS : BPS DURATION NUMBER_OF_FRAMES NUMBER_OF_BYTES

Video
ID : 1
Format : AVC
Format/Info : Advanced Video Codec
Format profile : [email protected]
Format settings, CABAC : Yes
Format settings, ReFrames : 4 frames
Codec ID : V_MPEG4/ISO/AVC
Duration : 55mn 34s
Bit rate mode : Constant
Bit rate : 4 031 Kbps
Nominal bit rate : 6 000 Kbps
Width : 1 280 pixels
Height : 720 pixels
Display aspect ratio : 16:9
Frame rate : 23.976 fps
Color space : YUV
Chroma subsampling : 4:2:0
Bit depth : 8 bits
Scan type : Progressive
Bits/(Pixel*Frame) : 0.182
Stream size : 1.57 GiB (78%)
Default : Yes
Forced : No
Color primaries : BT.709-5, BT.1361, IEC 61966-2-4, SMPTE RP177
Transfer characteristics : BT.709-5, BT.1361
Matrix coefficients : BT.709-5, BT.1361, IEC 61966-2-4 709, SMPTE RP177

Audio #1
ID : 2
Format : AC-3
Format/Info : Audio Coding 3
Mode extension : CM (complete main)
Codec ID : A_AC3
Duration : 55mn 34s
Bit rate mode : Constant
Bit rate : 384 Kbps
Channel(s) : 6 channels
Channel positions : Front: L C R, Side: L R, LFE
Sampling rate : 48.0 KHz
Bit depth : 16 bits
Compression mode : Lossy
Stream size : 153 MiB (7%)
Language : Ukrainian
Default : Yes
Forced : No

Audio #2
ID : 3
Format : E-AC-3
Format/Info : Audio Coding 3
Codec ID : A_EAC3
Duration : 55mn 34s
Bit rate mode : Constant
Bit rate : 640 Kbps
Channel(s) : 6 channels
Channel positions : Front: L C R, Side: L R, LFE
Sampling rate : 48.0 KHz
Compression mode : Lossy
Delay relative to video : 28ms
Stream size : 254 MiB (12%)
Title : Eng
Language : English
Default : No
Forced : No

Text
ID : 4
Format : UTF-8
Codec ID : S_TEXT/UTF8
Codec ID/Info : UTF-8 Plain Text
Title : SDH
Language : English
Default : No
Forced : No
Скріншоти



Джерело:
Особиста оцінка: 10 - без зайвих вагань рекомендую всім!


Авторський реліз (завантажувати можна без реєстрації)
 Трекер:    Зареєстрований   

Завантажити / скачати серіал українською



відео для новачків



 Зареєстрований:   2020-11-30 19:26
 Розмір:   5.83 GB 
 Оцінка серіалу:   9/10 (Голосів: 7)
   
don pedro 
Попереджень: 1
Попереджень: 1 


З нами з: 29.06.11
Востаннє: 01.12.20
Повідомлень: 18212

2020-10-21 14:59  
Гранта на постері омолодили на двадцять років.
Electroz 
Відео Гуртом - підтримка та поширення
Відео Гуртом - підтримка та поширення


З нами з: 18.09.14
Востаннє: 01.12.20
Повідомлень: 4217

2020-10-21 15:02  
Хдрезка хіба не буде озвучувати цей серіал?
Masanchick 
Попереджень: 1
Попереджень: 1 


З нами з: 08.04.11
Востаннє: 01.12.20
Повідомлень: 610

2020-10-21 15:17  
Electroz
У списку його не було, не вони люблять його доповнювати, так що все може бути

bot 
робот


З нами з: 30.09.07
Востаннє: 26.05.05
Повідомлень: 26416

2020-10-21 15:58  
Тему перенесено з Серіали в HD до форуму Анонси релізів


dragheart

usyk 
Свій


З нами з: 01.09.11
Востаннє: 01.12.20
Повідомлень: 82

2020-10-21 18:59  
Masanchick
В де список можна подивитись серіалів які озвучує Hdrezka?

ssTAss 
Модератор музики


З нами з: 05.07.08
Востаннє: 01.12.20
Повідомлень: 17058

2020-10-21 19:28  
usyk написано:
які озвучує Hdrezka

вона нічого не озвучує
озвучує Дніпрофільм на замовлення отого кацапського сайту
а де глянути, то ось https://toloka.to/t101042

bot 
робот


З нами з: 30.09.07
Востаннє: 26.05.05
Повідомлень: 26416

2020-11-11 19:30  
Тему перенесено з Анонси релізів до форуму Серіали в HD


dragheart

dragheart 
Свій


З нами з: 27.01.16
Востаннє: 01.12.20
Повідомлень: 123

2020-11-11 19:32  
Додано 1-ий епізод
dragheart 
Свій


З нами з: 27.01.16
Востаннє: 01.12.20
Повідомлень: 123

2020-11-19 17:05  
Додано 2-ий епізод
ADmB 
Новенький


З нами з: 25.03.17
Востаннє: 30.11.20
Повідомлень: 9

2020-11-25 22:53  
"На озвучку серіалу проводиться збір коштів."
Чому в росії ніколи не "проводиться збір коштів"? П'ять! П'ять озвучок є російською у цього серіалу (HDrezka, Amedia, NewStudio, AlexFilm, Jaskier). Ось як вони все це озвучують без збору коштів з глядачів? Хто їх, ці студії, фінансує?

Masanchick 
Попереджень: 1
Попереджень: 1 


З нами з: 08.04.11
Востаннє: 01.12.20
Повідомлень: 610

2020-11-25 23:17  
ADmB
Спонсори, реклама, збори коштів в них також це є. Просто їх ринок набагато більший, том маємо те що маємо

don pedro 
Попереджень: 1
Попереджень: 1 


З нами з: 29.06.11
Востаннє: 01.12.20
Повідомлень: 18212

2020-11-25 23:22  
ADmB написано:
Чому в росії ніколи не "проводиться збір коштів"?

Тому що там повно рекламодавців. А, оскільки українців значно менше і більшість малесеньких розумненьких патріотичних українчиків дивляться парусскі, то вони і не з'являться. Тому і збір коштів. Дуже просто.

dragheart 
Свій


З нами з: 27.01.16
Востаннє: 01.12.20
Повідомлень: 123

2020-11-30 19:28  
Додано 3-й епізод
kpomed 
Частий відвідувач


З нами з: 12.10.13
Востаннє: 01.12.20
Повідомлень: 41

2020-11-30 19:49  
Чому знищення ? що ви там знищуєте ?))
Чому не Скасування? по змісту все ж ближче до судової термінології

Ваш часовий пояс: GMT + 2 Години

Нова тема   Відповісти