Бен 10 Проти Всесвіту / Ben 10 vs. the Universe: The Movie (2020) AVC Ukr/Eng

Нові коментарі

Нова тема   Відповісти
Автор Повідомлення
sergiyko.5 
Забанено
Забанено


З нами з: 25.02.16
Востаннє: 29.10.20
Повідомлень: 3648

2020-10-21 12:36  
Бен 10 Проти Всесвіту / Ben 10 vs. the Universe: The Movie (2020) AVC Ukr/Eng


Бен 10 Проти Всесвіту / Ben 10 vs. the Universe: The Movie (2020) AVC Ukr/Eng

Жанр: екшн, фантастика
Країна: США
Кінокомпанія: Animation
Режисер: Енріке Жардім
Актори: Тара Стронг, Девід Кей, Ді Бредлі Бейкер, Роджер Крейг Сміт, Монце Ернандез

Сюжет:
Після того, як Бен Теннісон знайшов іноземний прилад Омнітрікс, він може перетворюватися в 10 інопланетних супергероїв. Кожен з цієї десятки має унікальну силу і майстерність. І хоча тепер на Бена покладена відповідальність захищати інших і боротися зі злом, він все одно знаходить час повеселитися!




Тривалість: 01:12:07
Якість:

Відео: кодек: розмір кадру: 1024 х 576 бітрейт: 1500 кб/с
Аудіо 1: мова: українська озвучення: багатоголосе закадрове кодек: 2.0 бітрейт: 256 кб/с
Аудіо 2: мова: англійська озвучення: оригінал кодек: 2.0 бітрейт: 192 кб/с
Про файл:
General
Unique ID : 129465719781704680903104258491103144522 (0x616630CE6EF11C3F2F50F044A9C16A4A)
Complete name : C:\Users\Sergij\Pictures\Ben 10 vs the Universe. The Movie.2020..
Format :
Format version : Version 4
File size : 984 MiB
Duration : 1 h 12 min
Overall bit rate : 1 908 kb/s
Movie name : Ben 10 vs the Universe. The Movie 2020 by sergiyko
Encoded date : UTC 2020-10-21 09:26:00
Writing application : v49.0.0 ('Sick Of Losing Soulmates') 64-bit
Writing library : libebml v1.4.0 + v1.6.1

Video
ID : 1
Format : AVC
Format/Info : Advanced Video Codec
Format profile : [email protected]
Format settings : CABAC / 7 Ref Frames
Format settings, CABAC : Yes
Format settings, Reference : 7 frames
Codec ID : V_MPEG4/ISO/AVC
Duration : 1 h 12 min
Bit rate : 1 457 kb/s
Width : 1 024 pixels
Height : 576 pixels
Display aspect ratio : 16:9
Frame rate mode : Constant
Frame rate : 23.976 (24000/1001) FPS
Color space : YUV
Chroma subsampling : 4:2:0
Bit depth : 8 bits
Scan type : Progressive
Bits/(Pixel*Frame) : 0.103
Stream size : 752 MiB (76%)
Title : Ben 10 vs the Universe. The Movie 2020
Writing library : core 159
Encoding settings : cabac=1 / ref=7 / deblock=1:0:0 / analyse=0x3:0x133 / me=umh / subme=10 / psy=1 / psy_rd=1.00:0.00 / mixed_ref=1 / me_range=24 / chroma_me=1 / trellis=2 / 8x8dct=1 / cqm=0 / deadzone=21,11 / fast_pskip=1 / chroma_qp_offset=-2 / threads=18 / lookahead_threads=3 / sliced_threads=0 / nr=0 / decimate=1 / interlaced=0 / bluray_compat=0 / constrained_intra=0 / bframes=8 / b_pyramid=2 / b_adapt=2 / b_bias=0 / direct=3 / weightb=1 / open_gop=0 / weightp=2 / keyint=250 / keyint_min=23 / scenecut=40 / intra_refresh=0 / rc_lookahead=60 / rc=crf / mbtree=1 / crf=19.0 / qcomp=0.60 / qpmin=0 / qpmax=69 / qpstep=4 / ip_ratio=1.40 / aq=1:1.00
Language : English
Default : Yes
Forced : No

Audio #1
ID : 2
Format : LC
Format/Info : Advanced Audio Codec Low Complexity
Codec ID : A_AAC-2
Duration : 1 h 12 min
Bit rate : 256 kb/s
Channel(s) : 2 channels
Channel layout : L R
Sampling rate : 44.1 kHz
Frame rate : 43.066 FPS (1024 SPF)
Compression mode : Lossy
Stream size : 132 MiB (13%)
Title : MVO 2ch
Language : Ukrainian
Default : Yes
Forced : Yes

Audio #2
ID : 3
Format : LC
Format/Info : Advanced Audio Codec Low Complexity
Codec ID : A_AAC-2
Duration : 1 h 12 min
Bit rate : 192 kb/s
Channel(s) : 2 channels
Channel layout : L R
Sampling rate : 44.1 kHz
Frame rate : 43.066 FPS (1024 SPF)
Compression mode : Lossy
Stream size : 99.0 MiB (10%)
Title : Original
Language : English
Default : No
Forced : No
Скріншоти:


Запис/синхронізація: sergiyko


 Трекер:    Зареєстрований   

Завантажити / скачати мультфільм українською



відео для новачків



 Зареєстрований:   2020-10-21 12:36
 Розмір:   984 MB 
 Оцінка мультфільму:   7.8/10 (Голосів: 11)
   


Систематичний перехід на особистості, видано Konfucius
Djohnnikey 
VIP


З нами з: 01.10.15
Востаннє: 21.04.21
Повідомлень: 477

2020-12-03 23:34  
Бена 10 дивився вже у цілому дорослому віці (років так у 23-24) по ТБ. В цілому подобався цей герой (хоча дивився лише коли випадково потрапляв, та не надто занурювався у цей всесвіт). Ото тільки там Бен був підлітком з командою. Тут же це дитина років 7-8 з відповідною поведінкою (хоча сам Бен стверджує, що йому 10), та й сам сюжет більш... ніякий. В цілому мульт нагадує Павер Рейнджерів - пафос задля пафоса, понти задля понтів. Тож, кому подобаються рейнджери, мабуть, й зайде. Хоча, якщо ви, як я, дивилися кілька серій серіалу, або й зовсім нічого не знаєте про героїв, думаю, півфільму будете гадати: а хто це, та що це?.. Очікував набагато більшого.
5 з 10.

Ваш часовий пояс: GMT + 2 Години

Нова тема   Відповісти