Любов і монстри (Monster Problems) / Love and Monsters (2020) 1080p Ukr/Eng | sub Eng

Нові коментарі

Нова тема   Відповісти
Автор Повідомлення
Anonymous 







2020-10-20 02:20  
Любов і монстри (Monster Problems) / Love and Monsters (2020) 1080p Ukr/Eng | sub Eng

Любов і монстри (Monster Problems) / Love and Monsters (2020) 1080p Ukr/Eng | sub Eng


Жанр: фантастика, бойовик, пригодницький, комедія
Країна: Канада, США



Кінокомпанія: 21 Laps Entertainment, Entertainment One, MTV Films
Режисер: Майкл Метьюз
Актори: Ділан О’Брайєн, Майкл Рукер, Джессіка Генвік, Амалі Ґолден, Теснім Рок та інші

Сюжет:
Через сім років після нападу на людську расу жахливих монстрів, Джоель Доусон разом з іншими вижили і ховаються під землею від величезних істот, які тепер почуваються господарями на планеті. Одного разу хлопець ловить сигнал по радіо і чує голос дівчини Еймі, в яку був закоханий ще в старшій школі. Вона сховалася в прибережній колонії, розташованої в 80 милях від притулку Джоеля. Всупереч будь-якій лозіці, хлопець вирішує, що йому більше нічого робити під землею, і відправляється на пошуки Еймі. На шляху до заповітної мети Джоелю належить подолати безліч небезпек і знайти нових друзів, а також дізнатися багато нового про чудовиськ, які захопили планету ...


Тривалість: 01:48:52
Якість:
Відео:
кодек:
розмір кадру: 1920 х 800
бітрейт: 7443 кб/с

Аудіо # 1:
мова: українська
переклад: багатоголосий закадровий
кодек: 5.1
бітрейт: 384 кб/с

Аудіо # 2:
мова: англійська
переклад: оригінал
кодек: E- 5.1
бітрейт: 640 кб/с

Джерело озвучення:
DniproFilm

Субтитри:
мова: українська [Forced]
тип: програмні (м'які)
формат: *.srt

Субтитри:
мова: англійська [SDH]
тип: програмні (м'які)
формат: *.srt
Info
Код:
General
Unique ID                                : 223719271758780116062866483894572222948 (0xA84EC3B3C2A1005FE0FF8F0B8A4B09E4)
Complete name                            : Love and Monsters (2020) 1080p [Ukr_Eng] [Hurtom].
Format                                   :
Format version                           : Version 4
File size                                : 6.44 GiB
Duration                                 : 1 h 48 min
Overall bit rate                         : 8 470 kb/s
Movie name                               : Кохання і монстри (2020)
Encoded date                             : UTC 2020-10-23 10:12:44
Writing application                      : v50.0.0 ('Awakenings') 64-bit
Writing library                          : libebml v1.4.0 + v1.6.2
Cover                                    : Yes
Attachments                              : cover.jpg

Video
ID                                       : 1
Format                                   : AVC
Format/Info                              : Advanced Video Codec
Format profile                           : [email protected]
Format settings                          : CABAC / 4 Ref Frames
Format settings, CABAC                   : Yes
Format settings, Reference frames        : 4 frames
Codec ID                                 : V_MPEG4/ISO/AVC
Duration                                 : 1 h 48 min
Bit rate mode                            : Constant
Bit rate                                 : 7 443 kb/s
Nominal bit rate                         : 10 000 kb/s
Width                                    : 1 920 pixels
Height                                   : 800 pixels
Display aspect ratio                     : 2.40:1
Frame rate mode                          : Constant
Frame rate                               : 23.976 (24000/1001) FPS
Color space                              : YUV
Chroma subsampling                       : 4:2:0
Bit depth                                : 8 bits
Scan type                                : Progressive
Bits/(Pixel*Frame)                       : 0.202
Stream size                              : 5.66 GiB (88%)
Default                                  : Yes
Forced                                   : No
Color range                              : Limited
Color primaries                          : BT.709
Transfer characteristics                 : BT.709
Matrix coefficients                      : BT.709

Audio #1
ID                                       : 2
Format                                   : AC-3
Format/Info                              : Audio Coding 3
Commercial name                          : Dolby Digital
Codec ID                                 : A_AC3
Duration                                 : 1 h 48 min
Bit rate mode                            : Constant
Bit rate                                 : 384 kb/s
Channel(s)                               : 6 channels
Channel layout                           : L R C LFE Ls Rs
Sampling rate                            : 48.0 kHz
Frame rate                               : 31.250 FPS (1536 SPF)
Compression mode                         : Lossy
Stream size                              : 299 MiB (5%)
Language                                 : Ukrainian
Service kind                             : Complete Main
Default                                  : Yes
Forced                                   : Yes

Audio #2
ID                                       : 3
Format                                   : E-AC-3
Format/Info                              : Enhanced AC-3
Commercial name                          : Dolby Digital Plus
Codec ID                                 : A_EAC3
Duration                                 : 1 h 48 min
Bit rate mode                            : Constant
Bit rate                                 : 640 kb/s
Channel(s)                               : 6 channels
Channel layout                           : L R C LFE Ls Rs
Sampling rate                            : 48.0 kHz
Frame rate                               : 31.250 FPS (1536 SPF)
Compression mode                         : Lossy
Stream size                              : 498 MiB (8%)
Language                                 : English
Service kind                             : Complete Main
Default                                  : No
Forced                                   : No

Text #1
ID                                       : 4
Format                                   : UTF-8
Codec ID                                 : S_TEXT/UTF8
Codec ID/Info                            : UTF-8 Plain Text
Duration                                 : 1 h 42 min
Bit rate                                 : 2 b/s
Count of elements                        : 42
Stream size                              : 2.11 KiB (0%)
Title                                    : Forced
Language                                 : Ukrainian
Default                                  : Yes
Forced                                   : Yes

Text #2
ID                                       : 5
Format                                   : UTF-8
Codec ID                                 : S_TEXT/UTF8
Codec ID/Info                            : UTF-8 Plain Text
Duration                                 : 1 h 42 min
Bit rate                                 : 73 b/s
Count of elements                        : 1711
Stream size                              : 55.3 KiB (0%)
Title                                    : SDH
Language                                 : English
Default                                  : No
Forced                                   : No

Скріншоти



Джерело:
подяка за постер пану mrgalser і за форсовані субтитри пану antik_2008


Авторський реліз (завантажувати можна без реєстрації)
 Трекер:    Зареєстрований   

Завантажити / скачати фільм українською



відео для новачків



 Зареєстрований:   2020-10-23 19:01
 Розмір:   6.44 GB 
 Оцінка фільму:   8.4/10 (Голосів: 48)
   
Electroz 
Відео Гуртом - підтримка та поширення
Відео Гуртом - підтримка та поширення


З нами з: 18.09.14
Востаннє: 17.01.21
Повідомлень: 4271

2020-10-20 08:37  
Anonymous написано:
Monster Problems

це ж не оригінальна назва

Додано через 42 секунди:

форсовані субтитри забув додати

igor911 
Модератор відео


З нами з: 18.01.08
Востаннє: 18.01.21
Повідомлень: 15325

2020-10-20 08:38  
Electroz написано:
це ж не оригінальна назва

https://www.imdb.com/title/tt2222042/
чому не оригінальна?

Electroz 
Відео Гуртом - підтримка та поширення
Відео Гуртом - підтримка та поширення


З нами з: 18.09.14
Востаннє: 17.01.21
Повідомлень: 4271

2020-10-20 08:47  
igor911 написано:
чому не оригінальна?

На амазоні та вікіпедії вказана інша назва, imdb не завжди довіряю.

lion822 
Поважний учасник


З нами з: 27.12.11
Востаннє: 17.01.21
Повідомлень: 216

2020-10-20 08:58  
озвучка з HDRezka чи тут любителi якiсь ?
igor911 
Модератор відео


З нами з: 18.01.08
Востаннє: 18.01.21
Повідомлень: 15325

2020-10-20 09:00  
Electroz написано:
На амазоні та вікіпедії вказана інша назва

вікіпедія написано:
The film's title was changed from Monster Problems to Love and Monsters.[14]

виправив

lion822 написано:
озвучка з HDRezka чи тут любителi якiсь ?

джерело вказане в описі

tilda4334 
VIP


З нами з: 15.08.14
Востаннє: 18.01.21
Повідомлень: 1294

2020-10-20 09:02  
Electroz написано:
форсовані субтитри забув додати

Це вже не вперше їх ігнорують.

Electroz 
Відео Гуртом - підтримка та поширення
Відео Гуртом - підтримка та поширення


З нами з: 18.09.14
Востаннє: 17.01.21
Повідомлень: 4271

2020-10-20 09:28  
Anonymous написано:
Кохання і монстри


mrgalser 
Частий відвідувач


З нами з: 19.12.18
Востаннє: 17.01.21
Повідомлень: 40

2020-10-20 10:38  
Masanchick 
VIP


З нами з: 08.04.11
Востаннє: 18.01.21
Повідомлень: 936

2020-10-20 13:42  
lion822 написано:
озвучка з HDRezka чи тут любителi якiсь ?

"любителі" з HDRezka

Anonymous 







2020-10-20 14:04  
Electroz написано:
це ж не оригінальна назва

орієнтувався на цей реліз https://toloka.to/t115291
підказали, що студія переклала як Любов і монстри.. змінив
Electroz написано:
форсовані субтитри забув додати

я їх не мав, тільки звук

Electroz 
Відео Гуртом - підтримка та поширення
Відео Гуртом - підтримка та поширення


З нами з: 18.09.14
Востаннє: 17.01.21
Повідомлень: 4271

2020-10-20 14:53  
Anonymous написано:
я їх не мав, тільки звук

на хдрезці вони присутні

І-р 
Свій


З нами з: 21.07.16
Востаннє: 16.01.21
Повідомлень: 142

2020-10-20 18:13  
Сподівався на цікавий фільм, але тут, як часто буває в тупенькому кіні, головний "герой" зовсім не герой, а якийсь недолугий бовдур, який робить нелогічні вчинки, особливо у небезпечних обставинах, робить те, що йому ж на шкоду, або не робить потрібного, довго думає, коли рішення має бути миттєве, і часто через таку загальмованість (дивиться з відкритим ротом і великими очима як якась гидота збирається ним пообідати замість того щоб хоча б втікати) хтось або щось його рятує. І якщо він такий сміливець то чого увесь час трясеться і ціпеніє при небезпеці?
Тільки для недопідлітків.

Smiluk 
Новенький


З нами з: 02.10.17
Востаннє: 17.01.21
Повідомлень: 5

2020-10-20 22:25  
Повна маячня. Марно витрачений час
Nikko033 
VIP


З нами з: 31.12.12
Востаннє: 17.01.21
Повідомлень: 628

2020-10-21 21:06  
повністю не згоден з коментарями вище. хороший, розважальний фільмець без претензій на щось більше 8,5/10
bot 
робот


З нами з: 30.09.07
Востаннє: 26.05.05
Повідомлень: 26924

2020-10-22 22:26  
Тему перенесено з Неоформлене відео до форуму Фільми в HD


antik_2008

Anonymous 







2020-10-23 19:02  
торент змінено
додано форсовані українські субтитри

staf777 
Відео Гуртом - підтримка та поширення
Відео Гуртом - підтримка та поширення


З нами з: 16.11.16
Востаннє: 17.01.21
Повідомлень: 4804

2020-10-24 20:42  
Зовсім не погано як для свого жанра - тверда 8
Lite_an 
Частий відвідувач


З нами з: 02.01.15
Востаннє: 16.01.21
Повідомлень: 25

2020-10-26 09:50  
Гарна озвучка і позитивний фільм для домашнього перегляду
ziben 
Новенький


З нами з: 18.08.15
Востаннє: 17.01.21
Повідомлень: 16

2020-10-26 15:46  
чи буде в кращій якості?
GoDLiKeR20 
Свій


З нами з: 21.06.13
Востаннє: 17.01.21
Повідомлень: 104

2020-10-26 18:40  
Подивився 16 хвилин і вимкнув. Недопрацьовано. Банально. Можливо підійде для дітей чи підлітків. Краще уж глянути перший фільм про "Бігуна в Лабіринті" з тим же Діланом Брайаном.
Wensun 
Поважний учасник


З нами з: 20.01.09
Востаннє: 15.01.21
Повідомлень: 201

2020-11-03 22:33  
Фільм для дітей, йду до дівчини, і вернувся і навіть не спойлер бо там ні інтриги ні сюжету.. якесь таке... 5/10, 7 річній донці сподобалось
Жевжик 
Новенький


З нами з: 01.03.18
Востаннє: 02.01.21
Повідомлень: 8

2020-11-12 21:55  
Під алкоголь і чіпси. Не фонтан, іноді смішно, іноді ні. Глибокий сенс шукати не варто.
Моїй дівчині сподобався

RemH7 
Частий відвідувач


З нами з: 15.08.11
Востаннє: 09.01.21
Повідомлень: 37

2021-01-02 11:33  
Хороший, добрий фільм.
Так, часами наївний але сам так і задумано. Тобто відразу видно, що це не жахи з претензією на моторошність а просто весела історія з гумором та самоіронією.
Як на мене, то 8 з 10
Акторська гра хороша.

Ваш часовий пояс: GMT + 2 Години

Нова тема   Відповісти