Таємниця щурів (Секрет НІП) / The Secret of NIMH (1982) 1080p H.265 Ukr/Eng | Sub Ukr/Eng

Нові коментарі

Нова тема   Відповісти
Автор Повідомлення
Anonymous 







2020-10-20 01:46  
Таємниця щурів (Секрет НІП) / The Secret of NIMH (1982) 1080p H.265 Ukr/Eng | Sub Ukr/Eng

Таємниця щурів (Секрет НІП) / The Secret of NIMH (1982) 1080p H.265 Ukr/Eng | Sub Ukr/Eng


Жанр: анімація, сімейний, фентезі, драма
Країна: США
Кінокомпанія: Aurora, MGM
Режисер: Дон Блат / Don Bluth
Ролі озвучують: Дерек Джекобі / Derek Jacobi як Нікодемус (голос), Елізабет Хартман / Elizabeth Hartman як пані Брізбі (голос), Артур Малет / Arthur Malet як пан Ейджес (голос), Дом ДеЛуіз / Dom DeLuise як Джеремі (голос), Герміона Бедделі / Hermione Baddeley як тьотя Землерийка (голос), Шенен Доерті / Shannen Doherty як Тереза (голос), Уіл Віатон / Wil Wheaton як Мартін (голос), Джоді Гікс / Jodi Hicks як Синтія (голос), Ян Фрід / Ian Fried як Тімоті (голос), Джон Керрадайн / John Carradine як Великий Сич (голос), Пітер Штарус / Peter Strauss як Джастін (голос), Пол Шенар / Paul Shenar як Дженнер (голос)Українською ролі озвучували: Дмитро Завадський та Юлія Перенчук.

Сюжет:
Польова миша пані Брізбі повинна перевезти власну родину у безпечне місце до того, як фермер почне оранку, на якому вони живуть, але її син Тіммі не може виходити на вулицю, через пневмонію. Вона звертається за допомогою до дуже розумних щурів, які побудували підземне суспільство у кущі роз біля ферми. Щури, яких очолює мудрий Нікодемус, вирішують допомогти перемістити будиночок пані Брізбі, щоб відплатити борг вдячності перед її померлим чоловіком. Яле все ускладнюється, коли де-хто із щурів вирішують, що час обрати нового лідера замість Нікодимуса.

Тривалість: 01:22:45
Якість:

Відео:
кодек: H.265 (HEVC)
розмір кадру: 1920 x 1040
бітрейт: 9 799 кб/с
бітова глибина: 10 біт

Увага! Перед завантаженням переконайтесь, що ваш пристрій відтворення (та/або ПЗ) підтримує H.265 (HEVC)

Аудіо # 1:
мова: українська
переклад: двоголосий закадровий
кодек: AC-3 2.0
бітрейт: 192 кб/с

Аудіо # 2:
мова: англійська
переклад: оригінал
кодек: 2.0
бітрейт: 1510 кб/с

Субтитри # 1: (Full from DVD)
мова: українська
тип: програмні (м'які)
формат: *.srt

Субтитри # 2: (Full)
мова: англійська
тип: програмні (м'які)
формат: *.srt


Info
Код:
General
Unique ID                                : 146251994549773746570279286308947612872 (0x6E071C0CF97FE9A2D237F5A7B35BD4C8)
Complete name                            : The Secret of NIMH (1983) 1080p H.265 [UKR_ENG] [Hurtom].
Format                                   :
Format version                           : Version 4
File size                                : 6.65 GiB
Duration                                 : 1 h 22 min
Overall bit rate                         : 11.5 Mb/s
Movie name                               : Таємниця щурів (Секрет НІП) / The Secret of NIMH (1982)
Encoded date                             : UTC 2020-10-19 22:40:30
Writing application                      : v20.0.0 ('I Am The Sun') 64-bit
Writing library                          : libebml v1.3.5 + v1.4.8
Cover                                    : Yes
Attachments                              : Cover.jpg

Video
ID                                       : 1
Format                                   : HEVC
Format/Info                              : High Efficiency Video Coding
Format profile                           : Main [email protected]@High
Codec ID                                 : V_MPEGH/ISO/HEVC
Duration                                 : 1 h 22 min
Bit rate                                 : 9 798 kb/s
Width                                    : 1 920 pixels
Height                                   : 1 040 pixels
Display aspect ratio                     : 1.85:1
Frame rate mode                          : Constant
Frame rate                               : 23.976 (23976/1000) FPS
Original frame rate                      : 23.976 (24000/1001) FPS
Color space                              : YUV
Chroma subsampling                       : 4:2:0
Bit depth                                : 10 bits
Bits/(Pixel*Frame)                       : 0.205
Stream size                              : 5.66 GiB (85%)
Title                                    : Таємниця щурів (Секрет НІП) / The Secret of NIMH (1982)
Writing library                          : x265 3.4+10-g25b2c0703:[Windows][MSVC 1927][64 bit] 10bit
Encoding settings                        : cpuid=1111039 / frame-threads=4 / numa-pools=16 / wpp / no-pmode / no-pme / no-psnr / no-ssim / log-level=2 / input-csp=1 / input-res=1920x1040 / interlace=0 / total-frames=112468 / level-idc=41 / high-tier=1 / uhd-bd=0 / ref=5 / no-allow-non-conformance / no-repeat-headers / annexb / no-aud / no-hrd / info / hash=0 / no-temporal-layers / open-gop / min-keyint=23 / keyint=240 / gop-lookahead=0 / bframes=16 / b-adapt=2 / b-pyramid / bframe-bias=0 / rc-lookahead=60 / lookahead-slices=4 / scenecut=40 / hist-scenecut=0 / radl=0 / no-splice / no-intra-refresh / ctu=32 / min-cu-size=8 / rect / amp / max-tu-size=32 / tu-inter-depth=4 / tu-intra-depth=4 / limit-tu=1 / rdoq-level=2 / dynamic-rd=0.00 / no-ssim-rd / signhide / no-tskip / nr-intra=0 / nr-inter=0 / no-constrained-intra / no-strong-intra-smoothing / max-merge=4 / limit-refs=2 / limit-modes / me=3 / subme=7 / merange=57 / temporal-mvp / no-frame-dup / no-hme / weightp / weightb / no-analyze-src-pics / deblock=-3:-3 / no-sao / no-sao-non-deblock / rd=6 / selective-sao=0 / no-early-skip / no-rskip / no-fast-intra / no-tskip-fast / no-cu-lossless / no-b-intra / no-splitrd-skip / rdpenalty=0 / psy-rd=2.00 / psy-rdoq=1.00 / no-rd-refine / no-lossless / cbqpoffs=0 / crqpoffs=0 / rc=crf / crf=20.0 / qcomp=0.60 / qpstep=4 / stats-write=0 / stats-read=0 / vbv-maxrate=50000 / vbv-bufsize=50000 / vbv-init=0.9 / crf-max=0.0 / crf-min=0.0 / ipratio=1.40 / pbratio=1.30 / aq-mode=1 / aq-strength=1.00 / no-cutree / zone-count=0 / no-strict-cbr / qg-size=32 / no-rc-grain / qpmax=69 / qpmin=0 / no-const-vbv / sar=1 / overscan=0 / videoformat=5 / range=0 / colorprim=1 / transfer=1 / colormatrix=1 / chromaloc=0 / display-window=0 / cll=0,0 / min-luma=0 / max-luma=1023 / log2-max-poc-lsb=8 / vui-timing-info / vui-hrd-info / slices=1 / no-opt-qp-pps / no-opt-ref-list-length-pps / no-multi-pass-opt-rps / scenecut-bias=0.05 / hist-threshold=0.01 / no-opt-cu-delta-qp / no-aq-motion / no-hdr10 / no-hdr10-opt / no-dhdr10-opt / no-idr-recovery-sei / analysis-reuse-level=0 / analysis-save-reuse-level=0 / analysis-load-reuse-level=0 / scale-factor=0 / refine-intra=0 / refine-inter=0 / refine-mv=1 / refine-ctu-distortion=0 / no-limit-sao / ctu-info=0 / no-lowpass-dct / refine-analysis-type=0 / copy-pic=1 / max-ausize-factor=1.0 / no-dynamic-refine / no-single-sei / no-hevc-aq / no-svt / no-field / qp-adaptation-range=1.00 / no-scenecut-aware-qpconformance-window-offsets / right=0 / bottom=0 / decoder-max-rate=0
Default                                  : Yes
Forced                                   : No
Color range                              : Limited
Color primaries                          : BT.709
Transfer characteristics                 : BT.709
Matrix coefficients                      : BT.709

Audio #1
ID                                       : 2
Format                                   : AC-3
Format/Info                              : Audio Coding 3
Commercial name                          : Dolby Digital
Codec ID                                 : A_AC3
Duration                                 : 1 h 22 min
Bit rate mode                            : Constant
Bit rate                                 : 192 kb/s
Channel(s)                               : 2 channels
Channel layout                           : L R
Sampling rate                            : 48.0 kHz
Frame rate                               : 31.250 FPS (1536 SPF)
Compression mode                         : Lossy
Stream size                              : 114 MiB (2%)
Title                                    : / 2.0 Ch / 192 kbps / DVO / 1+1
Language                                 : Ukrainian
Service kind                             : Complete Main
Default                                  : Yes
Forced                                   : Yes

Audio #2
ID                                       : 3
Format                                   :
Format/Info                              : Digital Theater Systems
Codec ID                                 : A_DTS
Duration                                 : 1 h 22 min
Bit rate mode                            : Constant
Bit rate                                 : 1 509 kb/s
Channel(s)                               : 2 channels
Channel layout                           : Lt Rt
Sampling rate                            : 48.0 kHz
Frame rate                               : 93.750 FPS (512 SPF)
Bit depth                                : 24 bits
Compression mode                         : Lossy
Stream size                              : 893 MiB (13%)
Title                                    : / 2.0 Ch / 1509 kbps / Original
Language                                 : English
Default                                  : No
Forced                                   : No

Text #1
ID                                       : 4
Format                                   : UTF-8
Codec ID                                 : S_TEXT/UTF8
Codec ID/Info                            : UTF-8 Plain Text
Duration                                 : 1 h 18 min
Bit rate                                 : 82 b/s
Count of elements                        : 964
Stream size                              : 47.1 KiB (0%)
Title                                    : Full from DVD
Language                                 : Ukrainian
Default                                  : No
Forced                                   : No

Text #2
ID                                       : 5
Format                                   : UTF-8
Codec ID                                 : S_TEXT/UTF8
Codec ID/Info                            : UTF-8 Plain Text
Duration                                 : 1 h 16 min
Bit rate                                 : 50 b/s
Count of elements                        : 1096
Stream size                              : 28.0 KiB (0%)
Title                                    : Full
Language                                 : English
Default                                  : No
Forced                                   : No

Menu
00:00:00.000                             : en:Prologue / Main Titles
00:03:52.231                             : en:Medicine Packet
00:07:03.047                             : en:Call of the Wild
00:09:56.345                             : en:Allergic to Cats
00:11:53.003                             : en:Jeremy's Potential
00:14:42.298                             : en:Auntie Shrew
00:17:39.892                             : en:Flying Dreams
00:20:41.865                             : en:Moving Day
00:24:19.541                             : en:Seeking Wisdom
00:26:26.084                             : en:The Great Owl
00:31:57.332                             : en:Helpful Jeremy
00:34:36.240                             : en:Brutus
00:38:56.959                             : en:The Great Council
00:44:51.980                             : en:All Tied Up
00:47:43.402                             : en:Nicodemus
00:50:56.595                             : en:The Secret of NIMH
00:53:59.527                             : en:The Glowing Stone
00:56:34.682                             : en:Drugging Dragon
01:03:14.457                             : en:Bad News
01:07:37.094                             : en:The Warning
01:10:34.229                             : en:The House Sinks
01:12:46.403                             : en:The Medallion's Power
01:15:02.915                             : en:Sweet New Home
01:17:51.667                             : en:End Titles
01:22:44.709                             : en:Jenner's Plot
Світлини




Джерело: &
Особиста оцінка: 0 - не дивився


Срібний реліз (на рейтинг впливає 50% завантаженого)
 Трекер:    Зареєстрований   

Завантажити / скачати мультфільм українською



відео для новачків



 Зареєстрований:   2020-10-20 01:46
 Розмір:   6.65 GB 
 Оцінка мультфільму:   10/10 (Голосів: 2)
   
Ваш часовий пояс: GMT + 2 Години

Нова тема   Відповісти