Пісня моря / Song of the Sea (2014) 1080p H.265 Ukr/Eng | Sub 2xUkr/Eng

Нові коментарі

Нова тема   Відповісти
Автор Повідомлення
Anonymous 







2020-10-20 01:38  
Пісня моря / Song of the Sea (2014) 1080p H.265 Ukr/Eng | Sub 2xUkr/Eng

Пісня моря / Song of the Sea (2014) 1080p H.265 Ukr/Eng | Sub 2xUkr/Eng


Жанр: анімаційний, сімейний, фентезі
Країна: Ірландія, Данія, Бельгія, Люксембург, Франція
Кінокомпанія: Big Farm, Cartoon Saloon, Digital Graphics
Режисер: Томм Мур
Актори: Девід Рол, Брендан Глісон, Ліза Ханніган, Фіонулла Фленеген, Пет Шорт, Джон Кенні

Сюжет:
Маленька дівчинка на ім'я Сірша, яка вміє перетворюватися на тюленя, вирушає у подорож разом із братом, аби врятувати світ духів та інших чарівних істот, як і вона.

Тривалість: 01:33:59
Якість:

Відео:
кодек: H.265 (HEVC)
розмір кадру: 1920 x 1040
бітрейт: 6 615 кб/с
бітова глибина: 10 біт

Увага! Перед завантаженням переконайтесь, що ваш пристрій відтворення (та/або ПЗ) підтримує H.265 (HEVC)

Аудіо # 1:
мова: українська
переклад: багатоголосий закадровий | Студія Омікрон
кодек: 5.1
бітрейт: 1510 кб/с

Аудіо # 2:
мова: англійська
переклад: оригінал
кодек: 5.1
бітрейт: 1510 кб/с

Аудіо # 3:
мова: англійська
переклад: оригінал | Commentary with Director Tomm Moore
кодек: 2.0
бітрейт: 96 кб/с

Субтитри # 1-2: (Full by химерка, Full by Gedet)
мова: українська
тип: програмні (м'які)
формат: *.srt, *.

Субтитри # 3-5: (Full, SDH, SDH-Colored)
мова: англійська
тип: програмні (м'які)
формат: *.srt


Info
Код:
General
Unique ID                                : 279303846873027362576582786310938297315 (0xD21FF6D79D8FD12CA8658B3DF5B003E3)
Complete name                            : Song of the Sea (2014) 1080p H.265 [UKR_ENG] [Hurtom].
Format                                   :
Format version                           : Version 4
File size                                : 6.39 GiB
Duration                                 : 1 h 33 min
Overall bit rate                         : 9 733 kb/s
Movie name                               : Пісня моря / Song of the Sea (2014)
Encoded date                             : UTC 2020-10-19 22:57:13
Writing application                      : v20.0.0 ('I Am The Sun') 64-bit
Writing library                          : libebml v1.3.5 + v1.4.8
Cover                                    : Yes
Attachments                              : Cover.jpg

Video
ID                                       : 1
Format                                   : HEVC
Format/Info                              : High Efficiency Video Coding
Format profile                           : Main [email protected]@High
Codec ID                                 : V_MPEGH/ISO/HEVC
Duration                                 : 1 h 33 min
Bit rate                                 : 6 614 kb/s
Width                                    : 1 920 pixels
Height                                   : 1 040 pixels
Display aspect ratio                     : 1.85:1
Frame rate mode                          : Constant
Frame rate                               : 23.976 (23976/1000) FPS
Original frame rate                      : 23.976 (24000/1001) FPS
Color space                              : YUV
Chroma subsampling                       : 4:2:0
Bit depth                                : 10 bits
Bits/(Pixel*Frame)                       : 0.138
Stream size                              : 4.34 GiB (68%)
Title                                    : Пісня моря / Song of the Sea (2014)
Writing library                          : x265 3.4+10-g25b2c0703:[Windows][MSVC 1927][64 bit] 10bit
Encoding settings                        : cpuid=1111039 / frame-threads=4 / numa-pools=16 / wpp / no-pmode / no-pme / no-psnr / no-ssim / log-level=2 / input-csp=1 / input-res=1920x1040 / interlace=0 / total-frames=135216 / level-idc=41 / high-tier=1 / uhd-bd=0 / ref=5 / no-allow-non-conformance / no-repeat-headers / annexb / no-aud / no-hrd / info / hash=0 / no-temporal-layers / open-gop / min-keyint=23 / keyint=240 / gop-lookahead=0 / bframes=10 / b-adapt=2 / b-pyramid / bframe-bias=0 / rc-lookahead=60 / lookahead-slices=4 / scenecut=40 / hist-scenecut=0 / radl=0 / no-splice / no-intra-refresh / ctu=32 / min-cu-size=8 / rect / amp / max-tu-size=32 / tu-inter-depth=4 / tu-intra-depth=4 / limit-tu=1 / rdoq-level=2 / dynamic-rd=0.00 / no-ssim-rd / signhide / no-tskip / nr-intra=0 / nr-inter=0 / no-constrained-intra / no-strong-intra-smoothing / max-merge=4 / limit-refs=2 / limit-modes / me=3 / subme=7 / merange=57 / temporal-mvp / no-frame-dup / no-hme / weightp / weightb / no-analyze-src-pics / deblock=-3:-3 / no-sao / no-sao-non-deblock / rd=6 / selective-sao=0 / no-early-skip / no-rskip / no-fast-intra / no-tskip-fast / no-cu-lossless / no-b-intra / no-splitrd-skip / rdpenalty=0 / psy-rd=2.00 / psy-rdoq=1.00 / no-rd-refine / no-lossless / cbqpoffs=0 / crqpoffs=0 / rc=crf / crf=19.0 / qcomp=0.60 / qpstep=4 / stats-write=0 / stats-read=0 / vbv-maxrate=50000 / vbv-bufsize=50000 / vbv-init=0.9 / crf-max=0.0 / crf-min=0.0 / ipratio=1.40 / pbratio=1.30 / aq-mode=1 / aq-strength=1.00 / no-cutree / zone-count=0 / no-strict-cbr / qg-size=32 / no-rc-grain / qpmax=69 / qpmin=0 / no-const-vbv / sar=1 / overscan=0 / videoformat=5 / range=0 / colorprim=1 / transfer=1 / colormatrix=1 / chromaloc=0 / display-window=0 / cll=0,0 / min-luma=0 / max-luma=1023 / log2-max-poc-lsb=8 / vui-timing-info / vui-hrd-info / slices=1 / no-opt-qp-pps / no-opt-ref-list-length-pps / no-multi-pass-opt-rps / scenecut-bias=0.05 / hist-threshold=0.01 / no-opt-cu-delta-qp / no-aq-motion / no-hdr10 / no-hdr10-opt / no-dhdr10-opt / no-idr-recovery-sei / analysis-reuse-level=0 / analysis-save-reuse-level=0 / analysis-load-reuse-level=0 / scale-factor=0 / refine-intra=0 / refine-inter=0 / refine-mv=1 / refine-ctu-distortion=0 / no-limit-sao / ctu-info=0 / no-lowpass-dct / refine-analysis-type=0 / copy-pic=1 / max-ausize-factor=1.0 / no-dynamic-refine / no-single-sei / no-hevc-aq / no-svt / no-field / qp-adaptation-range=1.00 / no-scenecut-aware-qpconformance-window-offsets / right=0 / bottom=0 / decoder-max-rate=0
Default                                  : Yes
Forced                                   : No
Color range                              : Limited
Color primaries                          : BT.709
Transfer characteristics                 : BT.709
Matrix coefficients                      : BT.709

Audio #1
ID                                       : 2
Format                                   :
Format/Info                              : Digital Theater Systems
Codec ID                                 : A_DTS
Duration                                 : 1 h 33 min
Bit rate mode                            : Constant
Bit rate                                 : 1 509 kb/s
Channel(s)                               : 6 channels
Channel layout                           : C L R Ls Rs LFE
Sampling rate                            : 48.0 kHz
Frame rate                               : 93.750 FPS (512 SPF)
Bit depth                                : 16 bits
Compression mode                         : Lossy
Stream size                              : 1 014 MiB (16%)
Title                                    : / 5.1 Ch / 1509 kbps / DUB / Студія Omikron
Language                                 : Ukrainian
Default                                  : Yes
Forced                                   : Yes

Audio #2
ID                                       : 3
Format                                   :
Format/Info                              : Digital Theater Systems
Codec ID                                 : A_DTS
Duration                                 : 1 h 33 min
Bit rate mode                            : Constant
Bit rate                                 : 1 509 kb/s
Channel(s)                               : 6 channels
Channel layout                           : C L R Ls Rs LFE
Sampling rate                            : 48.0 kHz
Frame rate                               : 93.750 FPS (512 SPF)
Bit depth                                : 24 bits
Compression mode                         : Lossy
Delay relative to video                  : 11 ms
Stream size                              : 1 014 MiB (16%)
Title                                    : / 5.1 Ch / 1509 kbps / Original
Language                                 : English
Default                                  : No
Forced                                   : No

Audio #3
ID                                       : 4
Format                                   : LC
Format/Info                              : Advanced Audio Codec Low Complexity
Codec ID                                 : A_AAC-2
Duration                                 : 1 h 33 min
Bit rate                                 : 96.0 kb/s
Channel(s)                               : 2 channels
Channel layout                           : L R
Sampling rate                            : 48.0 kHz
Frame rate                               : 46.875 FPS (1024 SPF)
Compression mode                         : Lossy
Delay relative to video                  : 9 ms
Stream size                              : 64.5 MiB (1%)
Title                                    : / 2.0 Ch / 80 kbps / Original / Commentary with Director Tomm Moore
Language                                 : English
Default                                  : No
Forced                                   : No

Text #1
ID                                       : 5
Format                                   : UTF-8
Codec ID                                 : S_TEXT/UTF8
Codec ID/Info                            : UTF-8 Plain Text
Duration                                 : 1 h 33 min
Bit rate                                 : 59 b/s
Count of elements                        : 872
Stream size                              : 40.3 KiB (0%)
Title                                    : Full by химерка
Language                                 : Ukrainian
Default                                  : No
Forced                                   : No

Text #2
ID                                       : 6
Format                                   :
Codec ID                                 : S_TEXT/
Codec ID/Info                            : Advanced Sub Station Alpha
Duration                                 : 1 h 30 min
Bit rate                                 : 81 b/s
Count of elements                        : 862
Compression mode                         : Lossless
Stream size                              : 53.9 KiB (0%)
Title                                    : Full by Gedet
Language                                 : Ukrainian
Default                                  : No
Forced                                   : No

Text #3
ID                                       : 7
Format                                   : UTF-8
Codec ID                                 : S_TEXT/UTF8
Codec ID/Info                            : UTF-8 Plain Text
Duration                                 : 1 h 33 min
Bit rate                                 : 31 b/s
Count of elements                        : 818
Stream size                              : 21.3 KiB (0%)
Title                                    : Full
Language                                 : English
Default                                  : No
Forced                                   : No

Text #4
ID                                       : 8
Format                                   : UTF-8
Codec ID                                 : S_TEXT/UTF8
Codec ID/Info                            : UTF-8 Plain Text
Duration                                 : 1 h 33 min
Bit rate                                 : 39 b/s
Count of elements                        : 1109
Stream size                              : 26.8 KiB (0%)
Title                                    : SDH
Language                                 : English
Default                                  : No
Forced                                   : No

Text #5
ID                                       : 9
Format                                   : UTF-8
Codec ID                                 : S_TEXT/UTF8
Codec ID/Info                            : UTF-8 Plain Text
Duration                                 : 1 h 33 min
Bit rate                                 : 56 b/s
Count of elements                        : 1106
Stream size                              : 38.4 KiB (0%)
Title                                    : SDH-Colored
Language                                 : English
Default                                  : No
Forced                                   : No

Menu
00:00:00.000                             : en:Chapter 01
00:04:26.057                             : en:Chapter 02
00:09:28.943                             : en:Chapter 03
00:13:23.761                             : en:Chapter 04
00:18:49.587                             : en:Chapter 05
00:23:29.742                             : en:Chapter 06
00:26:30.339                             : en:Chapter 07
00:31:07.157                             : en:Chapter 08
00:35:10.400                             : en:Chapter 09
00:39:53.308                             : en:Chapter 10
00:44:19.115                             : en:Chapter 11
00:48:53.055                             : en:Chapter 12
00:52:21.347                             : en:Chapter 13
00:56:24.673                             : en:Chapter 14
00:59:58.094                             : en:Chapter 15
01:04:53.223                             : en:Chapter 16
01:08:52.462                             : en:Chapter 17
01:12:59.709                             : en:Chapter 18
01:17:48.289                             : en:Chapter 19
01:26:47.244                             : en:Chapter 20
Світлини




Джерело: &
Особиста оцінка: 10 - без зайвих вагань рекомендую всім!


Авторський реліз (завантажувати можна без реєстрації)
 Трекер:    Зареєстрований   

Завантажити / скачати мультфільм українською



відео для новачків



 Зареєстрований:   2020-10-20 01:38
 Розмір:   6.39 GB 
 Оцінка мультфільму:   9.8/10 (Голосів: 6)
   
Інші релізи
   Пісня моря / Song of the Sea (2014) AVC Ukr/Eng | sub Eng staf777  23 / 0   1.93 GB   2019-06-03 15:09 
   Пісня моря / Song of the Sea (2014) 1080p H.265 Ukr/Eng | sub Eng ukr_anonymous  7 / 0   5.26 GB   2018-05-25 16:51 
   Пісня моря / Song of the Sea (2014) Remux Ukr/Eng | sub Ukr/Eng Omikron  5 / 0   25.95 GB   2015-05-06 21:03 
   Пісня моря / Song of the Sea (2014) 1080p Ukr/Eng | sub Ukr/Eng Omikron  9 / 0   7.82 GB   2015-05-06 20:51 
   Пісня моря / Song of the Sea (2014) Omikron  7 / 0   1.45 GB   2015-05-02 20:40 
   Пісня моря / Song of the Sea (2014) 720p Ukr/Eng | sub Eng Omikron  21 / 0   2.34 GB   2015-05-02 20:39 
   Пісня моря / Song of the Sea (2014) 1080p Eng | Sub Ukr Gedet  3 / 0   4.37 GB   2015-03-24 21:46 
   Пісня моря / Song of the Sea (2014) 720p-mini Eng | Sub Ukr Gedet  1 / 0   2.65 GB   2015-03-24 21:44 
   Пісня моря / Song of the Sea (2014) Eng | sub Ukr химерка  0 / 0   1.41 GB   2015-03-23 10:01 
vash1 
VIP


З нами з: 16.03.16
Востаннє: 27.02.21
Повідомлень: 294

2020-10-20 16:54  
Цитата:
переклад: професійний дубльований | Студія Омікрон

MVO

Ваш часовий пояс: GMT + 2 Години

Нова тема   Відповісти