Гелстром (Сезон 1) / Helstrom (Season 1) (2020) 1080p Ukr/Eng | sub Eng/Spa

Нові коментарі

Нова тема   Відповісти
Автор Повідомлення
Anonymous 







2020-10-19 20:09  
Гелстром (Сезон 1) / Helstrom (Season 1) (2020) 1080p Ukr/Eng | sub Eng/Spa

Гелстром (Сезон 1) / Helstrom (Season 1) (2020) 1080p Ukr/Eng | sub Eng/Spa


Жанр: екшн, пригодницький, драма
Країна: США



Кінокомпанія: ABC Signature Studios, Marvel Television | Hulu
Режисер: Сенфорд Букставер, Андерс Енгстрем, Чері Ноулан
Актори: Том Остін, Сідні Леммон, Елізабет Марвел, Аріана Гуерра, Джун Керріл, Роберт Віздом, Деніел Кадмор, Тревор Робертс, Еріка Тремблей, Нолан Гапп, Девід Мюньє, Дебора Ван Валкенберг, Закарі С. Вільямс, Хамза Фуад, Шейн Вокер, Саманта Слоян

Сюжет:
Деймон Гелстром і його молодша сестра Аня Гелстром — діти земної жінки і Сатани. Незважаючи на складні взаємини, близькі родичі гуртом воюють з породженнями зла, використовуючи надздібності, що дісталися їм завдяки унікальній спорідненості з владикою Пекла.


Тривалість: 1 серія: ~ 55 хв. (цілком серій: 10)
Перелік серій
01 - Mother's Little Helpers
02 - Viaticum
03 - The One Who Got Away
04 - Containment
05 - Committed
06 - Leviathan
07 - Scars
08 - Underneath
09 - Vessels
10 - Hell Storm
Якість:
Відео:
кодек:
розмір кадру: 1920 x 1080
бітрейт: 2257 кб/с

Аудіо # 1:
мова: українська
переклад: багатоголосий закадровий
кодек: 5.1
бітрейт: 384 кб/с

Аудіо # 2:
мова: англійська
переклад: оригінал
кодек: 5.1
бітрейт: 256 кб/с

Джерело озвучення:
DniproFilm

Субтитри:
мова: англійська, іспанська
тип: програмні (м'які)
формат: *.srt
Info
Код:
General
Unique ID                                : 26171641826991152183006903856524961958 (0x13B079910110FB4AB1610E2D423C28A6)
Complete name                            : Helstrom S01E01 (2020) 1080p [Ukr_Eng] [Hurtom].
Format                                   :
Format version                           : Version 4
File size                                : 1.13 GiB
Duration                                 : 55 min 49 s
Overall bit rate                         : 2 899 kb/s
Movie name                               : Гелстром (Сезон 1, серія 1) (2020)
Encoded date                             : UTC 2020-10-19 00:56:48
Writing application                      : v50.0.0 ('Awakenings') 64-bit
Writing library                          : libebml v1.4.0 + v1.6.2
Cover                                    : Yes
Attachments                              : cover.jpg

Video
ID                                       : 1
Format                                   : AVC
Format/Info                              : Advanced Video Codec
Format profile                           : [email protected]
Format settings                          : CABAC / 4 Ref Frames
Format settings, CABAC                   : Yes
Format settings, Reference frames        : 4 frames
Codec ID                                 : V_MPEG4/ISO/AVC
Duration                                 : 55 min 49 s
Bit rate                                 : 2 257 kb/s
Width                                    : 1 920 pixels
Height                                   : 1 080 pixels
Display aspect ratio                     : 16:9
Frame rate mode                          : Constant
Frame rate                               : 23.976 (24000/1001) FPS
Color space                              : YUV
Chroma subsampling                       : 4:2:0
Bit depth                                : 8 bits
Scan type                                : Progressive
Bits/(Pixel*Frame)                       : 0.045
Stream size                              : 901 MiB (78%)
Default                                  : Yes
Forced                                   : No

Audio #1
ID                                       : 2
Format                                   : AC-3
Format/Info                              : Audio Coding 3
Commercial name                          : Dolby Digital
Codec ID                                 : A_AC3
Duration                                 : 55 min 49 s
Bit rate mode                            : Constant
Bit rate                                 : 384 kb/s
Channel(s)                               : 6 channels
Channel layout                           : L R C LFE Ls Rs
Sampling rate                            : 48.0 kHz
Frame rate                               : 31.250 FPS (1536 SPF)
Compression mode                         : Lossy
Stream size                              : 153 MiB (13%)
Language                                 : Ukrainian
Service kind                             : Complete Main
Default                                  : Yes
Forced                                   : Yes

Audio #2
ID                                       : 3
Format                                   : E-AC-3
Format/Info                              : Enhanced AC-3
Commercial name                          : Dolby Digital Plus
Codec ID                                 : A_EAC3
Duration                                 : 55 min 49 s
Bit rate mode                            : Constant
Bit rate                                 : 256 kb/s
Channel(s)                               : 6 channels
Channel layout                           : L R C LFE Ls Rs
Sampling rate                            : 48.0 kHz
Frame rate                               : 31.250 FPS (1536 SPF)
Compression mode                         : Lossy
Stream size                              : 102 MiB (9%)
Language                                 : English
Service kind                             : Complete Main
Default                                  : No
Forced                                   : No

Text #1
ID                                       : 4
Format                                   : UTF-8
Codec ID                                 : S_TEXT/UTF8
Codec ID/Info                            : UTF-8 Plain Text
Duration                                 : 55 min 36 s
Bit rate                                 : 61 b/s
Count of elements                        : 810
Stream size                              : 24.9 KiB (0%)
Title                                    : SDH
Language                                 : English
Default                                  : No
Forced                                   : No

Text #2
ID                                       : 5
Format                                   : UTF-8
Codec ID                                 : S_TEXT/UTF8
Codec ID/Info                            : UTF-8 Plain Text
Duration                                 : 55 min 1 s
Bit rate                                 : 62 b/s
Count of elements                        : 788
Stream size                              : 25.2 KiB (0%)
Language                                 : Spanish
Default                                  : No
Forced                                   : No

Menu
00:17:30.000                             : en:Chapter 01
00:27:42.005                             : en:Chapter 02
00:37:07.008                             : en:Chapter 03
00:50:02.007                             : en:Chapter 04

Скріншоти



Джерело:


Авторський реліз (завантажувати можна без реєстрації)
 Трекер:    Зареєстрований   

Завантажити / скачати серіал українською



відео для новачків



 Зареєстрований:   2020-10-19 20:09
 Розмір:   11.62 GB 
 Оцінка серіалу:   9.3/10 (Голосів: 3)
   
tilda4334 
VIP


З нами з: 15.08.14
Востаннє: 02.12.20
Повідомлень: 1182

2020-10-20 08:45  
А форсовані українські субтитри на написи принципово не додаєте?
Чи просто не вказуєте?

Electroz 
Відео Гуртом - підтримка та поширення
Відео Гуртом - підтримка та поширення


З нами з: 18.09.14
Востаннє: 02.12.20
Повідомлень: 4219

2020-10-20 08:48  
tilda4334 написано:
Чи просто не вказуєте?

їх тут немає

tilda4334 
VIP


З нами з: 15.08.14
Востаннє: 02.12.20
Повідомлень: 1182

2020-10-20 09:03  
Electroz
Чому не додавати?

Ваш часовий пояс: GMT + 2 Години

Нова тема   Відповісти