Місто магів / The 3 Wise Men / Los reyes magos (2003) -AVC Ukr/Spa

Нові коментарі

Нова тема   Відповісти
Автор Повідомлення
urij546724 
Відео Гуртом - фільмокрай
Відео Гуртом - фільмокрай


З нами з: 16.03.10
Востаннє: 17.04.21
Повідомлень: 5784

2020-10-19 17:11  
Місто магів / The 3 Wise Men / Los reyes magos (2003) -AVC Ukr/Spa



Жанр: анімація, сімейний
Країна: Франція, Іспанія



Кіностудія / кінокомпанія: Animagicstudio, Carrere Group D.A., TeleMadrid
Режисер: Антоніо Наварро (Antonio Navarro)
Актори: Хосе Коронадо (José Coronado), Хуан Ечанове (Juan Echanove), Іманол Аріас (Imanol Arias), Хав'єр Гурручага (Javier Gurruchaga), Іньякі Габілондо (Iñaki Gabilondo), Хосе Санчо (José Sancho), Девід Роблес (David Robles)...

Сюжет:
Чорний маг Беліал прагне заволодіти скарбами Стародавнього Храму і неподільно панувати над світом. Підступним планам протистоять три чаклуни - Мельхіор, Гаспар, Балтазар.
Сутичка героїв в жарких пустелях, океанах льоду і похмурих лабіринтах Соляного Міста допоможе зупинити зло і відкриє велику таємницю...


Тривалість: 01:16:01
Якість: -AVC
Відео:
кодек:
розмір кадру: 720 х 544
бітрейт: 1506 кб/с
частота кадрів: 25 к/с (fps)

Аудіо #1:
мова: українська
переклад: двоголосий закадровий
кодек: 2.0
бітрейт: 192 кб/с
запис звуку з каналу: 1+1

Аудіо #2:
мова: іспанська
переклад: оригінал
кодек: 5.1
бітрейт: 265 кб/с
Media info:
General
Unique ID : 242703176983572629490987839352726636522 (0xB696EE7E530D7EC95AE269274AF447EA)
Format :
Format version : Version 4
File size : 1.04 GiB
Duration : 1 h 16 min
Overall bit rate : 1 967 kb/s
Movie name : Los reyes magos (2003) [ukr.1+1_spa] -AVC [Hurtom] by urij546724
Encoded date : UTC 2020-10-18 17:17:21
Writing application : v51.0.0 ('I Wish') 64-bit
Writing library : libebml v1.4.0 + v1.6.2
Attachments : Los reyes magos (2003) [ukr.1+1_esp] -AVC [Hurtom] by urij546724.jpg

Video
ID : 1
Format : AVC
Format/Info : Advanced Video Codec
Format profile : [email protected]
Format settings : CABAC / 14 Ref Frames
Format settings, CABAC : Yes
Format settings, Reference : 14 frames
Codec ID : V_MPEG4/ISO/AVC
Duration : 1 h 16 min
Bit rate : 1 506 kb/s
Width : 720 pixels
Height : 544 pixels
Display aspect ratio : 1.882
Original display aspect rat : 4:3
Frame rate mode : Constant
Frame rate : 25.000 FPS
Color space : YUV
Chroma subsampling : 4:2:0
Bit depth : 8 bits
Scan type : Progressive
Bits/(Pixel*Frame) : 0.154
Stream size : 819 MiB (77%)
Title : Los reyes magos (2003) -AVC [Hurtom] by urij546724
Writing library : core 65 r1061M 839cd8c
Encoding settings : cabac=1 / ref=14 / deblock=1:0:0 / analyse=0x3:0x133 / me=umh / subme=7 / psy_rd=1.0:0.0 / mixed_ref=1 / me_range=16 / chroma_me=1 / trellis=1 / 8x8dct=1 / cqm=0 / deadzone=21,11 / chroma_qp_offset=-2 / threads=3 / nr=0 / decimate=1 / mbaff=0 / bframes=6 / b_pyramid=1 / b_adapt=2 / b_bias=0 / direct=1 / wpredb=1 / keyint=250 / keyint_min=25 / scenecut=40(pre) / rc=crf / crf=20.2 / qcomp=0.60 / qpmin=10 / qpmax=51 / qpstep=4 / ip_ratio=1.40 / pb_ratio=1.30 / aq=1:1.00
Language : Spanish
Default : Yes
Forced : No

Audio #1
ID : 2
Format : AC-3
Format/Info : Audio Coding 3
Commercial name : Dolby Digital
Codec ID : A_AC3
Duration : 1 h 16 min
Bit rate mode : Constant
Bit rate : 192 kb/s
Channel(s) : 2 channels
Channel layout : L R
Sampling rate : 48.0 kHz
Frame rate : 31.250 FPS (1536 SPF)
Compression mode : Lossy
Stream size : 104 MiB (10%)
Title : Українська доріжка
Language : Ukrainian
Service kind : Complete Main
Default : Yes
Forced : Yes

Audio #2
ID : 3
Format : LC
Format/Info : Advanced Audio Codec Low Complexity
Codec ID : A_AAC-2
Duration : 1 h 16 min
Bit rate : 265 kb/s
Channel(s) : 6 channels
Channel layout : C L R Ls Rs LFE
Sampling rate : 48.0 kHz
Frame rate : 46.875 FPS (1024 SPF)
Compression mode : Lossy
Stream size : 145 MiB (14%)
Title : Оригінальна доріжка
Language : Spanish
Default : No
Forced : No
Анаморфні скріншоти:





Скріншоти:





Трейлер:
Семпл:
Джерело 1_________Джерело 2_________Джерело 3_________Джерело 4_________Джерело 5
У випадку, якщо з усіх джерел семпл видалять, прохання повідомити мені у ПРИВАТ


Подяка:

1. Пану Hulk1987 за запис звуку з ТБ.


Реліз створено:


Срібний реліз (на рейтинг впливає 50% завантаженого)
 Трекер:    Зареєстрований   

Завантажити / скачати мультфільм українською



відео для новачків



 Зареєстрований:   2020-10-19 17:11
 Розмір:   1.04 GB 
 Оцінка мультфільму:   7.5/10 (Голосів: 4)
 Прохання не тікати з роздачі і залишати коментарі.
   
Shmyg 
Новенький


З нами з: 14.08.13
Востаннє: 16.04.21
Повідомлень: 6

2020-11-22 11:37  
Переклад назви українською абсолютно неправильний. 'Los reyes magos' - це волхви, які принесли звістку про народження Ісуса. Ніякого стосунку до магії це не має.
Ваш часовий пояс: GMT + 2 Години

Нова тема   Відповісти