Темний плащ / Darkwing Duck (Сезон 1, 18 серій з 65) (1991) 720p

Нові коментарі

Нова тема   Відповісти
Останній раз роздавалося bomberbird (2021-04-08)
Автор Повідомлення
sergiyko.5 
Забанено
Забанено


З нами з: 25.02.16
Востаннє: 29.10.20
Повідомлень: 3648

2020-10-19 16:53  
Темний плащ / Darkwing Duck (Сезон 1) (1991) 720p


Темний плащ / Darkwing Duck (Сезон 1, 18 серій з 65) (1991) 720p

Жанр: дитячий, пригоди
Країна: США
Режисер: Тед Стоунс

Сюжет:
Таємнича хвиля злочинності захлеснула місто Сент-Перо і спецслужба "Шпик" потребує послуг загадкового борця зі злочинністю Темного плаща, щоб зупинити прояви терористичної організації Г.О.Р.Е. та її керманича Сталевого Дзьоба. Терористи найняли шість наймогутніших ворогів Темного плаща для створення хаосу в різних місцях по всьому Сент-Перо. Темний плащ повинен піти і один за одним зупинити цих злочинців, щоб знайти і знешкодити Сталевого Дзьоба та врятувати місто.




Тривалість: 1 серія: 00:21:27 (цілком серій: 18 з 65)
Якість:

Відео: кодек: розмір кадру: 944 x 720 бітрейт: 1800 кб/с
Аудіо 1: мова: українська озвучення: професійне дубльоване кодек: MP2 2.0 бітрейт: 192 кб/с
Аудіо 2: мова: українська озвучення: професійне дубльоване кодек: AАС 2.0 бітрейт: 128 кб/с
Озвучення: студія LeDoyen на замовлення Disney Character Voices International.

Примітка: звук першої доріжки записано з трансляції каналу у стандарті Т2.
Перелік серій
03.Beauty and the Beet
04.Getting Antsy

06.Apes of Wrath
07 Dirty Money
08.Duck Blind

10 Water Way to Go
14.Trading Faces
15.Hush, Hush Sweet Charlatan
16.Can't Bayou Love
18.You Sweat Your Life

43.Dances with Bigfoot

44.Dirty Money

46.My Valentine Ghoul

48.A Duck by Any Other Name

50 In Like Blunt

52.Time and Punishment
53 Stressed to Kill
54.The Darkwing Squad
Про файл:
General
Unique ID : 340074359113321104871037435761199541362 (0xFFD7F06C5C8742CFD1A5FBBE5F6DEC72)
Complete name : C:\Users\Sergij\Pictures\Darkwing Duck S01 \S01E01.Water Way to Go..
Format :
Format version : Version 4
File size : 321 MiB
Duration : 21 min 27 s
Overall bit rate : 2 089 kb/s
Movie name : Darkwing Duck S01 by sergiyko
Encoded date : UTC 2020-10-19 09:53:38
Writing application : v49.0.0 ('Sick Of Losing Soulmates') 64-bit
Writing library : libebml v1.4.0 + v1.6.1

Video
ID : 1
Format : AVC
Format/Info : Advanced Video Codec
Format profile : [email protected]
Format settings : CABAC / 6 Ref Frames
Format settings, CABAC : Yes
Format settings, Reference : 6 frames
Codec ID : V_MPEG4/ISO/AVC
Duration : 21 min 27 s
Bit rate : 1 767 kb/s
Width : 944 pixels
Height : 720 pixels
Display aspect ratio : 4:3
Frame rate mode : Constant
Frame rate : 25.000 FPS
Color space : YUV
Chroma subsampling : 4:2:0
Bit depth : 8 bits
Scan type : Progressive
Bits/(Pixel*Frame) : 0.104
Stream size : 271 MiB (85%)
Title : S01E01.Water Way to Go
Writing library : core 157 r2969 d4099dd
Encoding settings : cabac=1 / ref=6 / deblock=1:0:0 / analyse=0x3:0x133 / me=umh / subme=10 / psy=1 / psy_rd=1.00:0.00 / mixed_ref=1 / me_range=24 / chroma_me=1 / trellis=2 / 8x8dct=1 / cqm=0 / deadzone=21,11 / fast_pskip=1 / chroma_qp_offset=-2 / threads=22 / lookahead_threads=3 / sliced_threads=0 / nr=0 / decimate=1 / interlaced=0 / bluray_compat=0 / constrained_intra=0 / bframes=8 / b_pyramid=2 / b_adapt=2 / b_bias=0 / direct=3 / weightb=1 / open_gop=0 / weightp=2 / keyint=250 / keyint_min=25 / scenecut=40 / intra_refresh=0 / rc_lookahead=60 / rc=crf / mbtree=1 / crf=20.0 / qcomp=0.60 / qpmin=0 / qpmax=69 / qpstep=4 / ip_ratio=1.40 / aq=1:1.00
Language : English
Default : Yes
Forced : No

Audio #1
ID : 2
Format : MPEG Audio
Format version : Version 1
Format profile : Layer 2
Format settings : Joint stereo / Intensity Stereo + MS Stereo
Codec ID : A_MPEG/L2
Codec ID/Hint : MP2
Duration : 21 min 27 s
Bit rate mode : Constant
Bit rate : 192 kb/s
Channel(s) : 2 channels
Sampling rate : 48.0 kHz
Frame rate : 41.667 FPS (1152 SPF)
Compression mode : Lossy
Delay relative to video : 160 ms
Stream size : 29.5 MiB (9%)
Title : DUB MP2 2ch
Language : Ukrainian
Default : Yes
Forced : No

Audio #2
ID : 3
Format : LC SBR
Format/Info : Advanced Audio Codec Low Complexity with Spectral Band Replication
Commercial name : HE-
Format settings : Implicit
Codec ID : A_AAC-2
Duration : 21 min 27 s
Bit rate : 128 kb/s
Channel(s) : 2 channels
Channel layout : L R
Sampling rate : 48.0 kHz
Frame rate : 23.438 FPS (2048 SPF)
Compression mode : Lossy
Delay relative to video : 160 ms
Stream size : 19.6 MiB (6%)
Title : DUB 2ch
Language : Ukrainian
Default : No
Forced : No
Скріншоти:


Запис/ріп: sergiyko


Срібний реліз (на рейтинг впливає 50% завантаженого)
 Трекер:    Зареєстрований   

Завантажити / скачати мультфільм українською



відео для новачків



 Зареєстрований:   2020-10-29 19:58
 Розмір:   5.24 GB 
 Оцінка мультсеріалу:   9.2/10 (Голосів: 16)
   
Altron320 
Поважний учасник


З нами з: 08.05.20
Востаннє: 14.04.21
Повідомлень: 181

2020-10-20 09:38  
Сен-Канар - Сент-Перо.
Ш.У.Ш. - Шпик.
Ф.А.У.Л - Г.О.Р.Е.

sergiyko.5 
Забанено
Забанено


З нами з: 25.02.16
Востаннє: 29.10.20
Повідомлень: 3648

2020-10-20 12:16  
Додав нові серії, список змінено згідно американської нумерації серій.
AlexKraftwerk 
Новенький


З нами з: 15.02.12
Востаннє: 14.04.21
Повідомлень: 19

2020-10-20 14:28  
Нарешті український дубляж дістався й до цього діснеївського серіалу 90-их років!
Із тих серіалів залишилися ще "Goof Troop" та "TaleSpin"

Acid Crash 
Новенький


З нами з: 05.11.13
Востаннє: 10.04.21
Повідомлень: 16

2020-10-20 15:02  
sergiyko.5
Дякую за роздачу.
Є пропозиція стосовно нумерації.
Беручи до уваги загальний кавардак з нумерацією цього серіалу можливо логічніше буде притримуватись на Хронологічному порядку серій.
Згідно ось цього джерела це так званий Production order
[url]https://darkwingduck.fandom.com/wiki/Darkwing_Duck_(episodes)[/url]

Altron320 
Поважний учасник


З нами з: 08.05.20
Востаннє: 14.04.21
Повідомлень: 181

2020-10-20 19:53  
А в якому порядку серії на Disney+?
sergiyko.5 
Забанено
Забанено


З нами з: 25.02.16
Востаннє: 29.10.20
Повідомлень: 3648

2020-10-22 13:18  
Додав дві нові серії.
svoboda181 
VIP


З нами з: 06.01.10
Востаннє: 16.12.20
Повідомлень: 267

2020-10-22 15:01  
Шкода, що режисер дубляжу або той, хто відповідає за український переклад, знову бракороб. В перекладі для українців звук, ніби то, перекладали з іноземного російського варіанту, пропхали не мову, а суржик або не питомі в українській мові слово-звороти.
dgentley 
Частий відвідувач


З нами з: 21.01.20
Востаннє: 12.03.21
Повідомлень: 36

2020-10-22 23:31  
AlexKraftwerk написано:
Із тих серіалів залишилися ще "Goof Troop" та "TaleSpin"

І ще "Bonkers". Колись показували російською на ICTV.

sergiyko.5 
Забанено
Забанено


З нами з: 25.02.16
Востаннє: 29.10.20
Повідомлень: 3648

2020-10-27 20:47  
Додав нові серії.
NemoInFire 
Відео Гуртом - фільмокрай
Відео Гуртом - фільмокрай


З нами з: 12.11.07
Востаннє: 14.04.21
Повідомлень: 681

2020-10-27 22:52  
Крутий мульт. Мені подобався найбільше з тих діснеєвських серіалів, які тоді показували по ТБ.
Дякую за реліз.

ЯСАМНЕЗНАЮ СВОГОЙМЕННЯ 
Новенький


З нами з: 04.01.18
Востаннє: 09.04.21
Повідомлень: 5

2020-10-29 16:39  
Altron320
Сталевий Дзьоб - Сталедзьоб

Додано через 7 хвилин 16 секунд:

svoboda181
Але чується краще за російський дубляж. І мені наприклад подобається, що дубляж "народною" мовою, а не край літературною. Так ніхо уже не розмовляє навіть у Львові

Acid Crash 
Новенький


З нами з: 05.11.13
Востаннє: 10.04.21
Повідомлень: 16

2020-10-29 16:42  
sergiyko.5
Вітаю,
мені здається, чи під час останнього оновлення торрента з'явились дублі серій?

sergiyko.5 
Забанено
Забанено


З нами з: 25.02.16
Востаннє: 29.10.20
Повідомлень: 3648

2020-10-29 16:45  
Acid Crash
Старі не оновлювались, додавав відсутні нові. Зробіть скрін списку, як у вас в теці виглядає.

ЯСАМНЕЗНАЮ СВОГОЙМЕННЯ 
Новенький


З нами з: 04.01.18
Востаннє: 09.04.21
Повідомлень: 5

2020-10-29 16:47  
AlexKraftwerk
Я точно дивився Tale Spin по тб українською, а потім мені скачали російсько і я був в шоці. Та зараз нормального дубляжу не можу знайти. А от Quack Pack і Goof Trap чекаємо

Додано через 40 секунд:

А де перші дві серії? На Толоці точно нема.

Acid Crash 
Новенький


З нами з: 05.11.13
Востаннє: 10.04.21
Повідомлень: 16

2020-10-29 16:50  

Двічі Dirty Money зустрічається.
Перегляную, схоже на помилку.
Під S01E44.Dirty Money.720p. записано Twin Beaks

sergiyko.5 
Забанено
Забанено


З нами з: 25.02.16
Востаннє: 29.10.20
Повідомлень: 3648

2020-10-29 16:52  
Помилився, сьогодні буду оновлювати, виправлю.
sergiyko.5 
Забанено
Забанено


З нами з: 25.02.16
Востаннє: 29.10.20
Повідомлень: 3648

2020-10-29 20:00  
Додав нові серії, перед оновлення торента серію 44 переменувати - S01E44.Twin Beaks.720p..
Ваш часовий пояс: GMT + 2 Години

Нова тема   Відповісти