Гелстром (Сезон 1) / Helstrom (Season 1) (2020) 720p Ukr/Eng

Нові коментарі

Нова тема   Відповісти
Автор Повідомлення
killer2015 
Поважний учасник


З нами з: 30.01.15
Востаннє: 26.11.20
Повідомлень: 191

2020-10-19 13:20  
Гелстром (Сезон 1) / Helstrom (Season 1) (2020) 720p Ukr/Eng

Гелстром (Сезон 1) / Helstrom (Season 1) (2020) 720p Ukr/Eng


Жанр: драма, фентезі, екшн, серіал
Країна: США


Кінокомпанія / телеканал: Hulu
Режисер: Андерс Енґстрем
Актори: Том Остін, Сідні Леммон, Фіона Дуріф, Аріана Ґуєрра, Роберт Віздом

Сюжет:
Деймон і Ана Гелстром - діти загадкового і могутнього серійного вбивці. У спробі розібратися в своєму походженні вони подорожують по світу і знищують найгірших представників людства.


Тривалість: 1 серія: ~ 50:00 (цілком серій: 10)
Перелік серій
1. «Мамині маленькі помічники»
2. «В'ятикум»
3. «Той, хто йде геть»
4. «Стримування»
5. «Вірний ідеї»
6. «Левіафан»
7. «Шрами»
8. «Знизу»
9. «Начиння»
10. «Пекельний шторм»
Якість:
Відео:
кодек:
розмір кадру: 1280 х 720
бітрейт: 2 401 кб/с

Аудіо #1:
мова: українська
переклад: багатоголосий закадровий
кодек: 5.1
бітрейт: 384 кб/с

Аудіо#2:
мова: англійська
переклад: оригінал
кодек: 5.1
бітрейт: 640 кб/с:

Субтитри:
мова: українська
тип: вбудовані (жорсткі)
МІ
General
Unique ID : 321221081980929442306694379825506262506 (0xF1A8EE181EEB89584DD13E73CD479DEA)
Complete name : G:\Фільми\Helstrom.2020.S01.720p\Helstrom.S01E01..720p.ukr.
Format :
Format version : Version 4
File size : 1.36 GiB
Duration : 55 min 47 s
Overall bit rate : 3 494 kb/s
Writing application : Lavf58.20.100
Writing library : Lavf58.20.100
ErrorDetectionType : Per level 1

Video
ID : 1
Format : AVC
Format/Info : Advanced Video Codec
Format profile : [email protected]
Format settings : CABAC / 1 Ref Frames
Format settings, CABAC : Yes
Format settings, Reference frames : 1 frame
Format settings, GOP : M=1, N=30
Codec ID : V_MPEG4/ISO/AVC
Duration : 55 min 47 s
Bit rate : 2 401 kb/s
Width : 1 280 pixels
Height : 720 pixels
Display aspect ratio : 16:9
Frame rate mode : Constant
Frame rate : 23.976 (24000/1001) FPS
Color space : YUV
Chroma subsampling : 4:2:0
Bit depth : 8 bits
Scan type : Progressive
Bits/(Pixel*Frame) : 0.109
Stream size : 958 MiB (69%)
Default : Yes
Forced : No

Audio #1
ID : 2
Format : AC-3
Format/Info : Audio Coding 3
Commercial name : Dolby Digital
Codec ID : A_AC3
Duration : 55 min 47 s
Bit rate mode : Constant
Bit rate : 384 kb/s
Channel(s) : 6 channels
Channel layout : L R C LFE Ls Rs
Sampling rate : 48.0 kHz
Frame rate : 31.250 FPS (1536 SPF)
Compression mode : Lossy
Delay relative to video : 22 ms
Stream size : 153 MiB (11%)
Language : Ukrainian
Service kind : Complete Main
Default : Yes
Forced : No

Audio #2
ID : 3
Format : AC-3
Format/Info : Audio Coding 3
Commercial name : Dolby Digital
Codec ID : A_AC3
Duration : 55 min 47 s
Bit rate mode : Constant
Bit rate : 640 kb/s
Channel(s) : 6 channels
Channel layout : L R C LFE Ls Rs
Sampling rate : 48.0 kHz
Frame rate : 31.250 FPS (1536 SPF)
Compression mode : Lossy
Delay relative to video : 446 ms
Stream size : 255 MiB (18%)
Service kind : Complete Main
Default : Yes
Forced : No
Скріншоти



Джерело:


Авторський реліз (завантажувати можна без реєстрації)
 Трекер:    Зареєстрований   

Завантажити / скачати серіал українською



відео для новачків



 Зареєстрований:   2020-10-19 13:20
 Розмір:   13.79 GB 
 Оцінка серіалу:   9.3/10 (Голосів: 7)
   
killer2015 
Поважний учасник


З нами з: 30.01.15
Востаннє: 26.11.20
Повідомлень: 191

2020-10-19 13:21  
Відеозаставку студії (шдрізки) видалено.


Masanchick 
Попереджень: 1
Попереджень: 1 


З нами з: 08.04.11
Востаннє: 26.11.20
Повідомлень: 597

2020-10-19 13:22  
не той розділ перенесіть в серіал в HD
bot 
робот


З нами з: 30.09.07
Востаннє: 26.05.05
Повідомлень: 26369

2020-10-19 17:12  
Тему перенесено з Телесеріали до форуму Серіали в HD


kino.

Electroz 
Відео Гуртом - підтримка та поширення
Відео Гуртом - підтримка та поширення


З нами з: 18.09.14
Востаннє: 26.11.20
Повідомлень: 4213

2020-10-19 17:17  
Скріншоти мають бути у форматі png
killer2015 
Поважний учасник


З нами з: 30.01.15
Востаннє: 26.11.20
Повідомлень: 191

2020-10-19 17:45  
Electroz
Замінив, дякую.

Roman7Fedorak 
Свій


З нами з: 30.03.12
Востаннє: 26.11.20
Повідомлень: 135

2020-10-19 19:30  
ооо крутяк )
don pedro 
Попереджень: 1
Попереджень: 1 


З нами з: 29.06.11
Востаннє: 26.11.20
Повідомлень: 18180

2020-10-20 23:42  
"Надприродне" здорової людини.
Ваш часовий пояс: GMT + 2 Години

Нова тема   Відповісти