Бен 10 Проти Всесвіту / Ben 10 vs. the Universe: The Movie (2020)

Нові коментарі

Нова тема   Відповісти
Автор Повідомлення
sergiyko.5 
VIP


З нами з: 25.02.16
Востаннє: 26.10.20
Повідомлень: 3618

2020-10-19 01:28  
Бен 10 Проти Всесвіту / Ben 10 vs. the Universe: The Movie (2020)


Бен 10 Проти Всесвіту / Ben 10 vs. the Universe: The Movie (2020)

Жанр: екшн, фантастика
Країна: США
Кінокомпанія: Animation
Режисер: Енріке Жардім
Актори: Тара Стронг, Девід Кей, Ді Бредлі Бейкер, Роджер Крейг Сміт, Монце Ернандез

Сюжет:
Після того, як Бен Теннісон знайшов іноземний прилад Омнітрікс, він може перетворюватися в 10 інопланетних супергероїв. Кожен з цієї десятки має унікальну силу і майстерність. І хоча тепер на Бена покладена відповідальність захищати інших і боротися зі злом, він все одно знаходить час повеселитися!




Тривалість: 01:12:07
Якість:

Відео: кодек: розмір кадру: 720 х 408 бітрейт: 1900 кб/с
Аудіо: мова: українська озвучення: багатоголосе закадрове кодек: 2.0 бітрейт: 192 кб/с
Про файл:
General
Complete name : C:\Users\Sergij\Documents\Ben 10 vs the Universe. The Movie.2020..avi
Format : AVI
Format/Info : Audio Video Interleave
File size : 1.05 GiB
Duration : 1 h 12 min
Overall bit rate : 2 094 kb/s
Writing application : VirtualDubMod 1.5.10.3 | www.virtualdub-fr.org || (build 2550/release)
Writing library : VirtualDubMod build 2550/release

Video
ID : 0
Format : MPEG-4 Visual
Format profile : Advanced [email protected]
Format settings : BVOP1
Format settings, BVOP : 1
Format settings, QPel : No
Format settings, GMC : No warppoints
Format settings, Matrix : Default (H.263)
Codec ID : DX50
Codec ID/Hint : DivX 5
Duration : 1 h 12 min
Bit rate : 1 893 kb/s
Width : 720 pixels
Height : 408 pixels
Display aspect ratio : 16:9
Frame rate : 23.976 (24000/1001) FPS
Color space : YUV
Chroma subsampling : 4:2:0
Bit depth : 8 bits
Scan type : Progressive
Compression mode : Lossy
Bits/(Pixel*Frame) : 0.269
Stream size : 976 MiB (90%)
Writing library : 1.2.1 (UTC 2008-12-04)

Audio
ID : 1
Format : AC-3
Format/Info : Audio Coding 3
Commercial name : Dolby Digital
Codec ID : 2000
Duration : 1 h 12 min
Bit rate mode : Constant
Bit rate : 192 kb/s
Channel(s) : 2 channels
Channel layout : L R
Sampling rate : 48.0 kHz
Frame rate : 31.250 FPS (1536 SPF)
Compression mode : Lossy
Stream size : 99.0 MiB (9%)
Alignment : Split across interleaves
Interleave, duration : 42 ms (1.00 video frame)
Interleave, preload duratio : 500 ms
Service kind : Complete Main
Скріншоти:


Запис/синхронізація: sergiyko


 Трекер:    Зареєстрований   

Завантажити / скачати мультфільм українською



відео для новачків



 Зареєстрований:   2020-10-19 01:28
 Розмір:   1.05 GB 
 Оцінка мультфільму:   8.2/10 (Голосів: 5)
   
Ваш часовий пояс: GMT + 2 Години

Нова тема   Відповісти