Бен 10 Проти Всесвіту / Ben 10 vs. the Universe: The Movie (2020) 720p Ukr/Eng

Нові коментарі

Нова тема   Відповісти
Автор Повідомлення
sergiyko.5 
Забанено
Забанено


З нами з: 25.02.16
Востаннє: 29.10.20
Повідомлень: 3651

2020-10-19 00:57  
Бен 10 Проти Всесвіту / Ben 10 vs. the Universe: The Movie (2020) 720p Ukr/Eng


Бен 10 Проти Всесвіту / Ben 10 vs. the Universe: The Movie (2020) 720p Ukr/Eng

Жанр: екшн, фантастика
Країна: США
Кінокомпанія: Animation
Режисер: Енріке Жардім
Актори: Тара Стронг, Девід Кей, Ді Бредлі Бейкер, Роджер Крейг Сміт, Монце Ернандез

Сюжет:
Після того, як Бен Теннісон знайшов іноземний прилад Омнітрікс, він може перетворюватися в 10 інопланетних супергероїв. Кожен з цієї десятки має унікальну силу і майстерність. І хоча тепер на Бена покладена відповідальність захищати інших і боротися зі злом, він все одно знаходить час повеселитися!




Тривалість: 01:12:07
Якість:

Відео: кодек: розмір кадру: 1280 х 720 бітрейт: 3200 кб/с
Аудіо 1: мова: українська озвучення: багатоголосе закадрове кодек: 2.0 бітрейт: 256 кб/с
Аудіо 2: мова: англійська озвучення: оригінал кодек: 2.0 бітрейт: 192 кб/с
Про файл:
General
Unique ID : 81299824981779546867953343338026690330 (0x3D29C6D8789258FC9ACFCA65AFFCE71A)
Complete name : C:\Users\Sergij\Pictures\Ben 10 vs the Universe. The Movie.2020.720p..
Format :
Format version : Version 4
File size : 1.84 GiB
Duration : 1 h 12 min
Overall bit rate mode : Variable
Overall bit rate : 3 653 kb/s
Movie name : Ben 10 vs the Universe. The Movie 2020 by sergiyko
Encoded date : UTC 2020-10-18 22:51:31
Writing application : v49.0.0 ('Sick Of Losing Soulmates') 64-bit
Writing library : libebml v1.4.0 + v1.6.1

Video
ID : 1
Format : AVC
Format/Info : Advanced Video Codec
Format profile : [email protected]
Format settings : CABAC / 1 Ref Frames
Format settings, CABAC : Yes
Format settings, Reference : 1 frame
Codec ID : V_MPEG4/ISO/AVC
Duration : 1 h 12 min
Bit rate mode : Variable
Bit rate : 3 202 kb/s
Maximum bit rate : 9 600 kb/s
Width : 1 280 pixels
Height : 720 pixels
Display aspect ratio : 16:9
Frame rate mode : Constant
Frame rate : 23.976 (24000/1001) FPS
Color space : YUV
Chroma subsampling : 4:2:0
Bit depth : 8 bits
Scan type : Progressive
Bits/(Pixel*Frame) : 0.145
Stream size : 1.61 GiB (88%)
Title : Ben 10 vs the Universe. The Movie 2020
Language : English
Default : Yes
Forced : No

Audio #1
ID : 2
Format : LC
Format/Info : Advanced Audio Codec Low Complexity
Codec ID : A_AAC-2
Duration : 1 h 12 min
Bit rate : 256 kb/s
Channel(s) : 2 channels
Channel layout : L R
Sampling rate : 44.1 kHz
Frame rate : 43.066 FPS (1024 SPF)
Compression mode : Lossy
Stream size : 132 MiB (7%)
Title : MVO 2ch
Language : Ukrainian
Default : Yes
Forced : Yes

Audio #2
ID : 3
Format : LC
Format/Info : Advanced Audio Codec Low Complexity
Codec ID : A_AAC-2
Duration : 1 h 12 min
Bit rate : 192 kb/s
Channel(s) : 2 channels
Channel layout : L R
Sampling rate : 44.1 kHz
Frame rate : 43.066 FPS (1024 SPF)
Compression mode : Lossy
Stream size : 99.0 MiB (5%)
Title : Original
Language : English
Default : No
Forced : No
Скріншоти:


Запис/синхронізація: sergiyko


 Трекер:    Зареєстрований   

Завантажити / скачати мультфільм українською



відео для новачків



 Зареєстрований:   2020-10-19 00:57
 Розмір:   1.84 GB 
 Оцінка мультфільму:   7/10 (Голосів: 3)
   
Ваш часовий пояс: GMT + 2 Години

Нова тема   Відповісти