Спецпризначенці / S.W.A.T. (Сезон 2) (2018) 1080p Ukr/Eng | sub Eng

Нові коментарі

Нова тема   Відповісти
Автор Повідомлення
sergiyko.5 
Забанено
Забанено


З нами з: 25.02.16
Востаннє: 29.10.20
Повідомлень: 3651

2020-10-18 22:37  
Спецпризначенці / S.W.A.T. (Сезон 2) (2018) 1080p Ukr/Eng | sub Eng


Спецпризначенці / S.W.A.T. (Сезон 2) (2018) 1080p Ukr/Eng | sub Eng

Жанр: бойовик, триллер, кримінал
Країна: США
Кінокомпанія: MiddKid Productions, Kansas Art Productions, Original Film
Режисер: Білл Джирхарт, Джон Шоуолтер, Грег Біман
Актори: Кенні Джонсон, Стефані Сігман, Шемар Мур, Девід Лим, Патрік Ст. Еспріт, Аарон Бледсо, Ліна Еско, Луіс Ферріньо мол., Джей Херрінгтон, Джим Герріті та інші

Сюжет:
«Спецпризначенці» – це американський телесеріал, в центрі подій якого загін спеціального призначення. Даніель Гаррельсон (Шемар Мур) очолює загін справжніх профі, які займаються вельми відповідальною справою. Вони рятують жителів свого міста від найнебезпечніших злочинців. Загін спеціального призначення кожен день виїжджає на особливі завдання, небезпечні для життя. Однак з такою роботою можуть впоратися тільки вони.




Тривалість: 00:43:00 серія (загалом 23 серії з 23)
Якість:

Відео: кодек: розмір кадру: 1920 х 1080 бітрейт: 9500 кб/с
Аудіо # 1: мова: українська озвучення: багатоголосе закадрове кодек: 2.0 бітрейт: 192 кб/с
Озвучення: ТК Україна на замовлення NLO-TV
Аудіо # 2: мова: англійська озвучення: оригінал кодек: + 5.1 бітрейт: 640 кб/с
Субтитри: мова: англійська тип: програмні (м'які) формат: *.srt
Перелік серій:
01 Shaky Town
02 Gasoline Drum
03 Fire and Smoke
04 Saving Face
05 S.O.S.
06 Never Again
07 Inheritance
08 The Tiffany Experience
09 Day Off
10 1000 Joules
11 School
12 Los Huesos
13 Encore
14 The B-Team
15 Fallen
16 Pride
17 Jack
18 Cash Flow
19 Invisible
20 Rocket Fuel
21 Day of Dread
22 Trigger Creep
23 Kangaroo
Про файл:
General
Unique ID : 203882241093141225977060649626116464308 (0x99624A94468CA14AA88EAFBA30B29EB4)
Complete name : \\Nas0257aa\video\SERIAL_02\S.W.A.T. S02 1080p \S.W.A.T.S02E01.Shaky.Town.1080p..
Format :
Format version : Version 4
File size : 3.12 GiB
Duration : 43 min 2 s
Overall bit rate : 10.4 Mb/s
Movie name : S.W.A.T. S02 1080p by sergiyko
Encoded date : UTC 2020-10-05 11:59:40
Writing application : v49.0.0 ('Sick Of Losing Soulmates') 64-bit
Writing library : libebml v1.4.0 + v1.6.1

Video
ID : 1
Format : AVC
Format/Info : Advanced Video Codec
Format profile : [email protected]
Format settings : CABAC / 4 Ref Frames
Format settings, CABAC : Yes
Format settings, Reference : 4 frames
Codec ID : V_MPEG4/ISO/AVC
Duration : 43 min 2 s
Bit rate : 9 546 kb/s
Width : 1 920 pixels
Height : 1 080 pixels
Display aspect ratio : 16:9
Frame rate mode : Constant
Frame rate : 24.000 FPS
Color space : YUV
Chroma subsampling : 4:2:0
Bit depth : 8 bits
Scan type : Progressive
Bits/(Pixel*Frame) : 0.192
Stream size : 2.87 GiB (92%)
Title : S02E01.Shaky.Town
Language : English
Default : Yes
Forced : No
Color range : Limited
Color primaries : BT.709
Transfer characteristics : BT.709
Matrix coefficients : BT.709

Audio #1
ID : 2
Format : AC-3
Format/Info : Audio Coding 3
Commercial name : Dolby Digital
Codec ID : A_AC3
Duration : 43 min 2 s
Bit rate mode : Constant
Bit rate : 192 kb/s
Channel(s) : 2 channels
Channel layout : L R
Sampling rate : 48.0 kHz
Frame rate : 31.250 FPS (1536 SPF)
Compression mode : Lossy
Stream size : 59.1 MiB (2%)
Title : MVO | NLO TV
Language : Ukrainian
Service kind : Complete Main
Default : Yes
Forced : Yes

Audio #2
ID : 3
Format : E-AC-3
Format/Info : Enhanced AC-3
Commercial name : Dolby Digital Plus
Codec ID : A_EAC3
Duration : 43 min 2 s
Bit rate mode : Constant
Bit rate : 640 kb/s
Channel(s) : 6 channels
Channel layout : L R C LFE Ls Rs
Sampling rate : 48.0 kHz
Frame rate : 31.250 FPS (1536 SPF)
Compression mode : Lossy
Stream size : 197 MiB (6%)
Language : English
Service kind : Complete Main
Default : No
Forced : No

Text
ID : 4
Format : UTF-8
Codec ID : S_TEXT/UTF8
Codec ID/Info : UTF-8 Plain Text
Duration : 42 min 27 s
Bit rate : 92 b/s
Count of elements : 938
Stream size : 28.7 KiB (0%)
Title : SDH
Language : English
Default : No
Forced : No
Скріншоти:


Запис/синхронізація: sergiyko


Золотий реліз (завантажене не впливає на рейтинг)
 Трекер:    Зареєстрований   

Завантажити / скачати серіал українською



відео для новачків



 Зареєстрований:   2020-10-18 22:37
 Розмір:   66 GB 
 Оцінка серіалу:   8.2/10 (Голосів: 5)
   
Ваш часовий пояс: GMT + 2 Години

Нова тема   Відповісти