Сквот32 (2019) -AVC

Нові коментарі

Нова тема   Відповісти
Автор Повідомлення
sergiyko.5 
Забанено
Забанено


З нами з: 25.02.16
Востаннє: 29.10.20
Повідомлень: 3648

2020-10-17 16:27  
Сквот32 (2019) -AVC


Сквот32 (2019) -AVC

Жанр: драма
Країна: Україна
Кінокомпанія: Garnet International Media Group
Режисер: Саша Лідаговський
Актори: Анна Адамович, Олександр Богачук, Римаїда Онадська, Сергій Лузановський, Ігор Левенець, Іван Бліндар, Сандра Самбо, Бахірка Катерина, Владислав Партика, В'ячеслав Семенченко

Сюжет:
Сучасна історія Пітера Пена про пошук шляху до дорослого життя та усвідомлення власного стилю та талантів. Ліза працює фотографом у паспортному центрі. Одного разу вона потрапляє до товариства вільних і талановитих мрійників: творців, танцюристів, музикантів, які живуть у Сквоті - напівзруйнованому спустошеному будинку. Восьмидесятирічна Фаїна - єдиний законний мешканець будинку і єдина перешкода для забудовника, який планує зруйнувати увесь квартал, а з ним і Сквот. Лізу причаровує енергія, свобода і творчість товариства. Вони борються за свій спосіб життя, створюють та змінюють навколишній світ. Ліза сама змінюється, вона починає шукати своє місце у світі, розвиває своє бачення та стиль. Завдяки Сквоту Лізу помічають як фотографа, а її світ і можливості розширюються.






Якщо Ви бажаєте підтримати українське - після перегляду, придбайте його ліцензійний перегляд.
Підтримаймо вітчизняне кіно!



Тривалість: 01:34:10
Якість:

Відео: кодек: розмір кадру: 1024 х 424 бітрейт: 850 кб/с
Аудіо: мова: українська, російська озвучення: оригінал кодек: 2.0 бітрейт: 256 кб/с
Субтитри: (hardsub) мова: українська тип: вбудовані (жорсткі) (На неперекладені місця)
Про файл:
General
Unique ID : 308691088582803520100698633851684909628 (0xE83BBDB92B6057E965E89F7E68CDF23C)
Complete name : C:\Users\Sergij\Pictures\Сквот32.2019..
Format :
Format version : Version 4
File size : 743 MiB
Duration : 1 h 34 min
Overall bit rate : 1 103 kb/s
Movie name : Сквот32 2019 rip by sergiyko
Encoded date : UTC 2020-10-17 16:45:01
Writing application : v49.0.0 ('Sick Of Losing Soulmates') 64-bit
Writing library : libebml v1.4.0 + v1.6.1
Cover : Yes
Attachments : cover.jpeg

Video
ID : 1
Format : AVC
Format/Info : Advanced Video Codec
Format profile : [email protected]
Format settings : CABAC / 10 Ref Frames
Format settings, CABAC : Yes
Format settings, Reference : 10 frames
Codec ID : V_MPEG4/ISO/AVC
Duration : 1 h 34 min
Bit rate : 849 kb/s
Width : 1 024 pixels
Height : 424 pixels
Display aspect ratio : 2.40:1
Frame rate mode : Constant
Frame rate : 25.000 FPS
Color space : YUV
Chroma subsampling : 4:2:0
Bit depth : 8 bits
Scan type : Progressive
Bits/(Pixel*Frame) : 0.078
Stream size : 572 MiB (77%)
Writing library : core 152 r2851 ba24899
Encoding settings : cabac=1 / ref=10 / deblock=1:0:0 / analyse=0x3:0x133 / me=umh / subme=10 / psy=1 / psy_rd=1.00:0.00 / mixed_ref=1 / me_range=24 / chroma_me=1 / trellis=2 / 8x8dct=1 / cqm=0 / deadzone=21,11 / fast_pskip=1 / chroma_qp_offset=-2 / threads=13 / lookahead_threads=2 / sliced_threads=0 / nr=0 / decimate=1 / interlaced=0 / bluray_compat=0 / constrained_intra=0 / bframes=8 / b_pyramid=2 / b_adapt=2 / b_bias=0 / direct=3 / weightb=1 / open_gop=0 / weightp=2 / keyint=250 / keyint_min=25 / scenecut=40 / intra_refresh=0 / rc_lookahead=60 / rc=crf / mbtree=1 / crf=19.0 / qcomp=0.60 / qpmin=0 / qpmax=69 / qpstep=4 / ip_ratio=1.40 / aq=1:1.00
Language : Ukrainian
Default : Yes
Forced : No

Audio
ID : 2
Format : LC
Format/Info : Advanced Audio Codec Low Complexity
Codec ID : A_AAC-2
Duration : 1 h 34 min
Bit rate : 251 kb/s
Channel(s) : 2 channels
Channel layout : L R
Sampling rate : 48.0 kHz
Frame rate : 46.875 FPS (1024 SPF)
Compression mode : Lossy
Delay relative to video : 80 ms
Stream size : 169 MiB (23%)
Language : Ukrainian
Default : Yes
Forced : No
Скріншоти:


Запис/ріп: sergiyko


Золотий реліз (завантажене не впливає на рейтинг)
 Трекер:    Зареєстрований   

Завантажити / скачати український фільм



відео для новачків



 Зареєстрований:   2020-10-17 18:46
 Розмір:   743 MB 
 Оцінка фільму:   9.3/10 (Голосів: 13)
   
feron9 
Забанено
Забанено


З нами з: 07.11.17
Востаннє: 21.01.21
Повідомлень: 55

2020-10-17 18:50  
Дякую.
sergiyko.5 
Забанено
Забанено


З нами з: 25.02.16
Востаннє: 29.10.20
Повідомлень: 3648

2020-10-17 19:04  
Спектр звуку до 19,5kHz.
vogot 
Новенький


З нами з: 06.11.16
Востаннє: 01.03.21
Повідомлень: 3

2020-10-18 14:16  
sergiyko.5

Дякую!

RobertMenus 
Відео Гуртом - субтитрування
Відео Гуртом - субтитрування


З нами з: 08.03.11
Востаннє: 01.03.21
Повідомлень: 192

2020-10-19 08:49  
за ріп дякую.
але місцями відсутні шматочки відео, що прикро.

Ваш часовий пояс: GMT + 2 Години

Нова тема   Відповісти