Солдат / Soldier (1998) Remux 1080p Ukr/Eng | Sub Eng

Нові коментарі

Нова тема   Відповісти
Автор Повідомлення
MakRA 
VIP


З нами з: 10.11.18
Востаннє: 27.10.20
Повідомлень: 1156

2020-10-16 22:31  
Солдат / Soldier (1998) Remux 1080p Ukr/Eng | Sub Eng

Солдат / Soldier (1998) Remux 1080p Ukr/Eng | Sub Eng

Альтернативні оригінальні постери:

Жанр: екшн, фантастика, драма
Країна: США



Кінокомпанія: Warner Bros., Morgan Creek Entertainment, Jerry Weintraub Productions
Режисер: Пол У. С. Андерсон [Paul W.S. Anderson (as Paul Anderson)]
Актори: Курт Расел (Kurt Russell), Конні Нільсен [Connie Nielsen], Гері Б'юзі [Gary Busey], Джейсон Скотт Лі [Jason Scott Lee], Джейсон Айзекс [Jason Isaacs], Шон Пеrтві [Sean Pertwee], Джаред Торн [Jared Thorne], Тейлор Торн [Taylor Thorne], К. К. Доддс [K.K. Dodds], Джеймс Блек [James Black], Марк Де Алессандро [Mark De Alessandro], Володимир Орлов [Vladimir Orlov], Карстен Норгаард [Carsten Norgaard], Даффі Гейвер [Duffy Gaver]

Сюжет:
...Солдатів забирають в армію мало не з пелюшок. Дитина потрапляє в школу військових, де без батьків і всяких знижок на дитинство з відібраного людського матеріалу готують професійних солдатів. Одним з таких солдатів стає Тодд (Курт Расселл).
До 40 з гаком років провоював він, ставши кращим в своєму загоні. Коли на його космічний корабель прислали новачків, які в усіх відношеннях повинні перевершувати ветеранів на чолі з полковником, випускником Вест-Пойнта, останній підбурив трьох ветеранів з новим бійцем, старі програли.


Тривалість: 01:38:36
Якість: Remux 1080p
Відео:
кодек:
розмір кадру: 1920 х 1080
бітрейт: 21,9 Mб/с

Аудіо # 1:
мова: українська
переклад: багатоголосий закадровий
кодек: 2.0
бітрейт: 192 кб/с

Аудіо # 2:
мова: англійська
переклад: оригінал
кодек: -HD MA 5.1
бітрейт: 4323 кб/с

Аудіо # 3:
мова: англійська
переклад: оригінал
кодек: 5.1
бітрейт: 448 кб/с

Аудіо # 4:
мова: англійська
переклад: коментарі режисера Пола У. С. Андерсона
кодек: 2.0
бітрейт: 192 кб/с

Субтитри # 1: (SDH)
мова: англійська
тип: програмні (м'які)
формат: *.srt

Субтитри # 2: (SDH)
мова: англійська
тип: пререндерні
формат: *.pgs

Збережено оригінальні іменовані розділи, як на Blu-ray.
Info
General
Unique ID : 288684715794194764246343799744897334986 (0xD92EA763991ABA70C2434E277611BECA)
Complete name : H:\+ Фільми в HD\фантастика, екшн\Soldier (1998) Remux 1080p UkrEng Sub Eng [Hurtom].
Format :
Format version : Version 4
File size : 18.7 GiB
Duration : 1 h 38 min
Overall bit rate mode : Variable
Overall bit rate : 27.1 Mb/s
Movie name : Солдат / Soldier (1998) Remux 1080p Ukr/Eng | Sub Eng [Hurtom]
Encoded date : UTC 2020-10-17 21:22:56
Writing application : v51.0.0 ('I Wish') 64-bit
Writing library : libebml v1.4.0 + v1.6.2
Cover : Yes
Attachments : cover.jpg

Video
ID : 1
ID in the original source medi : 4113 (0x1011)
Format : AVC
Format/Info : Advanced Video Codec
Format profile : [email protected]
Format settings : CABAC / 2 Ref Frames
Format settings, CABAC : Yes
Format settings, Reference fra : 2 frames
Codec ID : V_MPEG4/ISO/AVC
Duration : 1 h 38 min
Bit rate mode : Variable
Bit rate : 21.9 Mb/s
Width : 1 920 pixels
Height : 1 080 pixels
Display aspect ratio : 16:9
Frame rate mode : Constant
Frame rate : 23.976 (24000/1001) FPS
Color space : YUV
Chroma subsampling : 4:2:0
Bit depth : 8 bits
Scan type : Progressive
Bits/(Pixel*Frame) : 0.441
Stream size : 15.1 GiB (81%)
Title : Soldier (1998) Remux 1080p Ukr/Eng | Sub Eng [Hurtom]
Language : Ukrainian
Default : Yes
Forced : Yes
Original source medium : Blu-ray

Audio #1
ID : 2
ID in the original source medi : 4357 (0x1105)
Format : AC-3
Format/Info : Audio Coding 3
Commercial name : Dolby Digital
Codec ID : A_AC3
Duration : 1 h 38 min
Bit rate mode : Constant
Bit rate : 192 kb/s
Channel(s) : 2 channels
Channel layout : L R
Sampling rate : 48.0 kHz
Frame rate : 31.250 FPS (1536 SPF)
Compression mode : Lossy
Stream size : 135 MiB (1%)
Title : MVO [НТН] [ICTV] [НОВИЙ] 2.0
Language : Ukrainian
Service kind : Complete Main
Default : Yes
Forced : Yes
Original source medium : Blu-ray

Audio #2
ID : 3
ID in the original source medi : 4358 (0x1106)
Format : XLL
Format/Info : Digital Theater Systems
Commercial name : -HD Master Audio
Codec ID : A_DTS
Duration : 1 h 38 min
Bit rate mode : Variable
Bit rate : 4 323 kb/s
Channel(s) : 6 channels
Channel layout : C L R Ls Rs LFE
Sampling rate : 48.0 kHz
Frame rate : 93.750 FPS (512 SPF)
Bit depth : 24 bits
Compression mode : Lossless
Stream size : 2.98 GiB (16%)
Title : Original -HD MA 5.1
Language : English
Default : No
Forced : No
Original source medium : Blu-ray

Audio #3
ID : 4
Format : AC-3
Format/Info : Audio Coding 3
Commercial name : Dolby Digital
Codec ID : A_AC3
Duration : 1 h 38 min
Bit rate mode : Constant
Bit rate : 448 kb/s
Channel(s) : 6 channels
Channel layout : L R C LFE Ls Rs
Sampling rate : 48.0 kHz
Frame rate : 31.250 FPS (1536 SPF)
Compression mode : Lossy
Stream size : 316 MiB (2%)
Title : Original 5.1
Language : English
Service kind : Complete Main
Default : No
Forced : No

Audio #4
ID : 5
ID in the original source medi : 4359 (0x1107)
Format : AC-3
Format/Info : Audio Coding 3
Commercial name : Dolby Digital
Codec ID : A_AC3
Duration : 1 h 38 min
Bit rate mode : Constant
Bit rate : 192 kb/s
Channel(s) : 2 channels
Channel layout : L R
Sampling rate : 48.0 kHz
Frame rate : 31.250 FPS (1536 SPF)
Compression mode : Lossy
Stream size : 135 MiB (1%)
Title : Original 2.0 | Commentary from director Paul W. S. Anderson
Language : English
Service kind : Complete Main
Default : No
Forced : No
Original source medium : Blu-ray

Text #1
ID : 6
Format : UTF-8
Codec ID : S_TEXT/UTF8
Codec ID/Info : UTF-8 Plain Text
Duration : 1 h 37 min
Bit rate : 24 b/s
Count of elements : 640
Stream size : 17.7 KiB (0%)
Title : Eng (SDH) SRT
Language : English
Default : No
Forced : No

Text #2
ID : 7
ID in the original source medi : 4609 (0x1201)
Format : PGS
Muxing mode : zlib
Codec ID : S_HDMV/PGS
Codec ID/Info : Picture based subtitle format used on BDs/HD-DVDs
Duration : 1 h 37 min
Bit rate : 15.4 kb/s
Count of elements : 1286
Stream size : 10.8 MiB (0%)
Title : Eng (SDH) PGS
Language : English
Default : No
Forced : No
Original source medium : Blu-ray

Menu
00:00:00.000 : en:Adam Project
00:04:32.480 : en:Man of Wars
00:06:23.800 : en:The New Breed
00:11:09.585 : en:Battle Scars
00:15:15.664 : en:Obsolete
00:17:16.869 : en:Out with the Trash
00:19:28.208 : en:The Landscape
00:22:37.689 : en:The Decent Thing
00:25:45.752 : en:Classified Hostiles
00:30:20.819 : en:Daily Perils
00:35:01.057 : en:Fear and Discipline
00:38:50.995 : en:Intrusive Memories
00:40:47.611 : en:Overreaction
00:43:33.193 : en:Snake Mishandler
00:46:38.754 : en:Out w/o the Trash
00:49:52.197 : en:Lesson Learned
00:52:05.664 : en:Death of a Hostile
00:57:11.928 : en:Under Fire
01:00:04.559 : en:Counterattack
01:02:50.683 : en:Significant Presence
01:04:15.643 : en:Kill Them All, Sir
01:06:41.831 : en:Engaging the Enemy
01:08:32.274 : en:Todd, Wind and Fire
01:12:57.915 : en:Crawler Down
01:14:54.573 : en:Collision Course
01:18:09.851 : en:On a Short Fuse
01:21:32.971 : en:One Last Battle
01:25:08.853 : en:Those Left Behind
01:29:16.184 : en:Death of a Planet
01:30:13.491 : en:New Home in View
01:32:14.529 : en:End Credits
01:38:36.493 : en:Chapter 32
Скріншоти
Джерело: &
За запис звуку з Нового дякую п. nick_89, синхронізація п. Arsenfpu
Особиста оцінка: 10 - без зайвих вагань рекомендую всім!



Золотий реліз (завантажене не впливає на рейтинг)
 Трекер:    Зареєстрований   

Завантажити / скачати фільм українською



відео для новачків



 Зареєстрований:   2020-10-18 01:01
 Розмір:   18.66 GB 
 Оцінка фільму:   10/10 (Голосів: 4)
   
Інші релізи
   Солдат / Soldier (1998) Ukr/Eng Arsenfpu  6 / 0   1.77 GB   2016-01-13 18:07 
   Солдат / Soldier (1998) 1080p Ukr/Eng Chelios  7 / 0   7.74 GB   2011-09-02 20:17 
bot 
робот


З нами з: 30.09.07
Востаннє: 26.05.05
Повідомлень: 25966

2020-10-16 22:31  
Тему перенесено з Фільми в HD до форуму Анонси релізів


MakRA

bot 
робот


З нами з: 30.09.07
Востаннє: 26.05.05
Повідомлень: 25966

2020-10-18 01:00  
Тему перенесено з Анонси релізів до форуму Фільми в HD


MakRA

Ваш часовий пояс: GMT + 2 Години

Нова тема   Відповісти