Лего Шазам: Магія і монстри / LEGO DC Shazam: Magic and Monsters (2020) BD Remux 1080p Ukr/Eng | Sub Eng

Нові коментарі

Нова тема   Відповісти
Останній раз роздавалося marinich (2021-03-01)
Автор Повідомлення
sergiyko.5 
Забанено
Забанено


З нами з: 25.02.16
Востаннє: 29.10.20
Повідомлень: 3648

2020-10-16 13:16  
Лего Шазам: Магія і монстри / LEGO DC Shazam: Magic and Monsters (2020) BD Remux 1080p Ukr/Eng | Sub Eng


Лего Шазам: Магія і монстри / LEGO DC Shazam: Magic and Monsters (2020) BD Remux 1080p Ukr/Eng | Sub Eng

Жанр: фантастика, фентнзі, бойовик
Країна: США
Кінокомпанія: DC Entertainment, The LEGO Group, Warner Bros. Animation
Режисер: Метт Пітерс
Актори: Шон Астін, Грей Деліс-Гріффін, Нолан Північ, Христина Міліція

Сюжет:
Хлопчику супергероєві Шазаму пропонують приєднатися до Ліги Справедливості, і спочатку він сумнівається. Але коли вороже Лізі Суспільству Монстрів завдає удар, лише Шазам може врятувати своїх нових друзів.




Тривалість: 01:21:21
Якість: BD Remux

Відео: кодек: розмір кадру: 1920 х 1080 бітрейт: 15200 кб/с
Аудіо 1: мова: українська озвучення: багатоголосе закадрове кодек: 2.0 бітрейт: 192 кб/с
Аудіо 2: мова: англійська озвучення: оригінал кодек: -HD Master Audio 5.1 бітрейт: 2390 кб/с
Субтитри: мова: англійська тип: програмні (м'які) формат: *.srt
Про файл:
General
Unique ID : 151420435135532677721858591676502796503 (0x71EA83D87AC7EA1B085F62A886D268D7)
Complete name : C:\Users\Sergij\Pictures\LEGO.DC.Shazam.Magic.and.Monsters.2020.1080p.Remux.Ukr.Eng.
Format :
Format version : Version 4
File size : 10.1 GiB
Duration : 1 h 21 min
Overall bit rate mode : Variable
Overall bit rate : 17.8 Mb/s
Movie name : LEGO DC Shazam.Magic and Monsters 2020 by sergiyko
Encoded date : UTC 2020-10-16 11:08:03
Writing application : v49.0.0 ('Sick Of Losing Soulmates') 64-bit
Writing library : libebml v1.4.0 + v1.6.1

Video
ID : 1
ID in the original source m : 4113 (0x1011)
Format : AVC
Format/Info : Advanced Video Codec
Format profile : [email protected]
Format settings : CABAC / 4 Ref Frames
Format settings, CABAC : Yes
Format settings, Reference : 4 frames
Codec ID : V_MPEG4/ISO/AVC
Duration : 1 h 21 min
Bit rate mode : Variable
Bit rate : 15.2 Mb/s
Maximum bit rate : 38.0 Mb/s
Width : 1 920 pixels
Height : 1 080 pixels
Display aspect ratio : 16:9
Frame rate mode : Constant
Frame rate : 23.976 (24000/1001) FPS
Color space : YUV
Chroma subsampling : 4:2:0
Bit depth : 8 bits
Scan type : Progressive
Bits/(Pixel*Frame) : 0.305
Stream size : 8.63 GiB (85%)
Title : LEGO DC Shazam - Magic & Monster 2020
Language : English
Default : No
Forced : No
Original source medium : Blu-ray

Audio #1
ID : 2
Format : AC-3
Format/Info : Audio Coding 3
Commercial name : Dolby Digital
Codec ID : A_AC3
Duration : 1 h 21 min
Bit rate mode : Constant
Bit rate : 192 kb/s
Channel(s) : 2 channels
Channel layout : L R
Sampling rate : 48.0 kHz
Frame rate : 31.250 FPS (1536 SPF)
Compression mode : Lossy
Stream size : 112 MiB (1%)
Title : MVO 2ch
Language : Ukrainian
Service kind : Complete Main
Default : Yes
Forced : Yes

Audio #2
ID : 3
ID in the original source m : 4352 (0x1100)
Format : XLL
Format/Info : Digital Theater Systems
Commercial name : -HD Master Audio
Codec ID : A_DTS
Duration : 1 h 21 min
Bit rate mode : Variable
Bit rate : 2 393 kb/s
Channel(s) : 6 channels
Channel layout : C L R Ls Rs LFE
Sampling rate : 48.0 kHz
Frame rate : 93.750 FPS (512 SPF)
Bit depth : 16 bits
Compression mode : Lossless
Stream size : 1.36 GiB (13%)
Title : Original
Language : English
Default : No
Forced : No
Original source medium : Blu-ray

Text
ID : 4
Format : UTF-8
Codec ID : S_TEXT/UTF8
Codec ID/Info : UTF-8 Plain Text
Duration : 1 h 18 min
Bit rate : 64 b/s
Count of elements : 1281
Stream size : 37.2 KiB (0%)
Language : English
Default : No
Forced : No

Menu
00:00:00.000 : en:Chapter 01
00:08:35.890 : en:Chapter 02
00:17:30.382 : en:Chapter 03
00:27:37.822 : en:Chapter 04
00:36:30.688 : en:Chapter 05
00:44:25.204 : en:Chapter 06
00:51:21.453 : en:Chapter 07
00:57:24.232 : en:Chapter 08
01:04:08.719 : en:Chapter 09
01:13:58.016 : en:Chapter 10
01:18:54.187 : en:Chapter 11
Скріншоти:


Запис/синхронізація: sergiyko


Золотий реліз (завантажене не впливає на рейтинг)
 Трекер:    Зареєстрований   

Завантажити / скачати мультфільм українською



відео для новачків



 Зареєстрований:   2020-10-16 13:16
 Розмір:   10.1 GB 
 Оцінка мультфільму:   10/10 (Голосів: 4)
   
Ваш часовий пояс: GMT + 2 Години

Нова тема   Відповісти