Заручник / Seized (2020) 1080p Eng | sub Ukr

Нові коментарі

Нова тема   Відповісти
Автор Повідомлення
killer2015 
Поважний учасник


З нами з: 30.01.15
Востаннє: 29.11.20
Повідомлень: 195

2020-10-16 12:50  
Заручник / Seized (2020) 1080p Eng | sub Ukr

Заручник / Seized (2020) 1080p Eng | sub Ukr


Жанр: Бойовик, трилер
Країна: США



Кінокомпанія: Premiere Entertainment Group, Arramis Films, BondIt Media Capital
Режисер: Айзек Флорентайн
Актори: Скотт Едкінс, Маріо Ван Поблизу, Керлі Перес, Стівен Елдер, Джеймс П. Беннетт, Маурісіо Мендоса, Луїс Гатіка, Пітер Орган, Крістіан Лейва, Меттью Гарбач

Сюжет:
Колишній агент спецназу виявляється втягнутий в боротьбу злочинних синдикатів, проти яких він багато років вів війну. Одне з угруповань хоче використовувати спецагента як зброю і викрадає його сина. Тепер, щоб врятувати свою дитину, він повинен знищити три найнебезпечніших мафіозних клану.


Тривалість: 01:21:50
Якість: 1080p
Відео:
кодек:
розмір кадру: 1912 x 1032
бітрейт: 5 147 кб/с

Аудіо:
мова: англійська
переклад: оригінал
кодек: 5.1
бітрейт: 384 кб/с

Субтитри:
мова: українська (машинний редагований переклад Killer2015 з російської)
тип: програмні (м'які)
формат: *.srt
МІ
General
Unique ID : 8971112102390774912909239212191295290 (0x6BFC5F9D2A97B2AD9F530B42484A73A)
Complete name : G:\Фільми\Seized.2020.1080p..DD5.1.-EVO_Eng_Sub_Ukr\Seized.2020.1080p..DD5.1.-EVO.
Format :
Format version : Version 4
File size : 3.16 GiB
Duration : 1 h 21 min
Overall bit rate : 5 533 kb/s
Movie name : EVO
Encoded date : UTC 2020-10-06 23:07:45
Writing application : v35.0.0 ('All The Love In The World') 64-bit
Writing library : libebml v1.3.9 + v1.5.2

Video
ID : 2
Format : AVC
Format/Info : Advanced Video Codec
Format profile : [email protected]
Format settings : CABAC / 4 Ref Frames
Format settings, CABAC : Yes
Format settings, Reference frames : 4 frames
Codec ID : V_MPEG4/ISO/AVC
Duration : 1 h 21 min
Bit rate : 5 147 kb/s
Width : 1 912 pixels
Height : 1 032 pixels
Display aspect ratio : 1.85:1
Frame rate mode : Constant
Frame rate : 25.000 FPS
Color space : YUV
Chroma subsampling : 4:2:0
Bit depth : 8 bits
Scan type : Progressive
Bits/(Pixel*Frame) : 0.104
Stream size : 2.94 GiB (93%)
Language : English
Default : Yes
Forced : No
Color range : Limited
Color primaries : BT.709
Transfer characteristics : BT.709
Matrix coefficients : BT.709

Audio
ID : 1
Format : AC-3
Format/Info : Audio Coding 3
Commercial name : Dolby Digital
Codec ID : A_AC3
Duration : 1 h 21 min
Bit rate mode : Constant
Bit rate : 384 kb/s
Channel(s) : 6 channels
Channel layout : L R C LFE Ls Rs
Sampling rate : 48.0 kHz
Frame rate : 31.250 FPS (1536 SPF)
Compression mode : Lossy
Delay relative to video : -40 ms
Stream size : 225 MiB (7%)
Language : English
Service kind : Complete Main
Default : Yes
Forced : No
Скріншоти





Джерело:
Особиста оцінка: 8 - мені сподобалося


 Трекер:    Зареєстрований   

Завантажити / скачати фільм українською



відео для новачків



 Зареєстрований:   2020-10-16 12:50
 Розмір:   3.16 GB 
 Оцінка фільму:   6.7/10 (Голосів: 3)
   
killer2015 
Поважний учасник


З нами з: 30.01.15
Востаннє: 29.11.20
Повідомлень: 195

2020-10-16 12:51  

Ваш часовий пояс: GMT + 2 Години

Нова тема   Відповісти