Лего Шазам: Магія і монстри / LEGO DC Shazam: Magic and Monsters (2020) AVC Ukr/Eng | Sub Eng

Нові коментарі

Нова тема   Відповісти
Автор Повідомлення
sergiyko.5 
Забанено
Забанено


З нами з: 25.02.16
Востаннє: 29.10.20
Повідомлень: 3651

2020-10-16 12:19  
Лего Шазам: Магія і монстри / LEGO DC Shazam: Magic and Monsters (2020) AVC Ukr/Eng | Sub Eng


Лего Шазам: Магія і монстри / LEGO DC Shazam: Magic and Monsters (2020) AVC Ukr/Eng | Sub Eng

Жанр: фантастика, фентнзі, бойовик
Країна: США
Кінокомпанія: DC Entertainment, The LEGO Group, Warner Bros. Animation
Режисер: Метт Пітерс
Актори: Шон Астін, Грей Деліс-Гріффін, Нолан Північ, Христина Міліція

Сюжет:
Хлопчику супергероєві Шазаму пропонують приєднатися до Ліги Справедливості, і спочатку він сумнівається. Але коли вороже Лізі Суспільству Монстрів завдає удар, лише Шазам може врятувати своїх нових друзів.




Тривалість: 01:21:21
Якість:

Відео: кодек: розмір кадру: 1024 х 576 бітрейт: 1500 кб/с
Аудіо 1: мова: українська озвучення: багатоголосе закадрове кодек: 2.0 бітрейт: 192 кб/с
Аудіо 2: мова: англійська озвучення: оригінал кодек: 5.1 бітрейт: 640 кб/с
Субтитри: мова: англійська тип: програмні (м'які) формат: *.srt
Про файл:
General
Unique ID : 86098472698747528378716948885353127262 (0x40C5F671C7CE1C3E37A7DB26203DDD5E)
Complete name : C:\Users\Sergij\Pictures\LEGO DC Shazam.Magic and Monsters.2020..
Format :
Format version : Version 4
File size : 1.33 GiB
Duration : 1 h 21 min
Overall bit rate : 2 337 kb/s
Movie name : LEGO DC Shazam.Magic and Monsters 2020 by sergiyko
Encoded date : UTC 2020-10-16 10:09:09
Writing application : v49.0.0 ('Sick Of Losing Soulmates') 64-bit
Writing library : libebml v1.4.0 + v1.6.1

Video
ID : 1
ID in the original source m : 4113 (0x1011)
Format : AVC
Format/Info : Advanced Video Codec
Format profile : [email protected]
Format settings : CABAC / 7 Ref Frames
Format settings, CABAC : Yes
Format settings, Reference : 7 frames
Codec ID : V_MPEG4/ISO/AVC
Duration : 1 h 21 min
Bit rate : 1 503 kb/s
Width : 1 024 pixels
Height : 576 pixels
Display aspect ratio : 16:9
Frame rate mode : Constant
Frame rate : 23.976 (24000/1001) FPS
Color space : YUV
Chroma subsampling : 4:2:0
Bit depth : 8 bits
Scan type : Progressive
Bits/(Pixel*Frame) : 0.106
Stream size : 875 MiB (64%)
Title : LEGO DC Shazam - Magic & Monster 2020
Writing library : core 159
Encoding settings : cabac=1 / ref=7 / deblock=1:0:0 / analyse=0x3:0x133 / me=umh / subme=10 / psy=1 / psy_rd=1.00:0.00 / mixed_ref=1 / me_range=24 / chroma_me=1 / trellis=2 / 8x8dct=1 / cqm=0 / deadzone=21,11 / fast_pskip=1 / chroma_qp_offset=-2 / threads=18 / lookahead_threads=3 / sliced_threads=0 / nr=0 / decimate=1 / interlaced=0 / bluray_compat=0 / constrained_intra=0 / bframes=8 / b_pyramid=2 / b_adapt=2 / b_bias=0 / direct=3 / weightb=1 / open_gop=0 / weightp=2 / keyint=250 / keyint_min=23 / scenecut=40 / intra_refresh=0 / rc_lookahead=60 / rc=crf / mbtree=1 / crf=18.0 / qcomp=0.60 / qpmin=0 / qpmax=69 / qpstep=4 / ip_ratio=1.40 / aq=1:1.00
Language : English
Default : Yes
Forced : No
Original source medium : Blu-ray

Audio #1
ID : 2
Format : AC-3
Format/Info : Audio Coding 3
Commercial name : Dolby Digital
Codec ID : A_AC3
Duration : 1 h 21 min
Bit rate mode : Constant
Bit rate : 192 kb/s
Channel(s) : 2 channels
Channel layout : L R
Sampling rate : 48.0 kHz
Frame rate : 31.250 FPS (1536 SPF)
Compression mode : Lossy
Stream size : 112 MiB (8%)
Title : MVO 2ch
Language : Ukrainian
Service kind : Complete Main
Default : Yes
Forced : Yes

Audio #2
ID : 3
Format : AC-3
Format/Info : Audio Coding 3
Commercial name : Dolby Digital
Codec ID : A_AC3
Duration : 1 h 21 min
Bit rate mode : Constant
Bit rate : 640 kb/s
Channel(s) : 6 channels
Channel layout : L R C LFE Ls Rs
Sampling rate : 48.0 kHz
Frame rate : 31.250 FPS (1536 SPF)
Compression mode : Lossy
Stream size : 372 MiB (27%)
Title : Original
Language : English
Service kind : Complete Main
Default : No
Forced : No

Text
ID : 4
Format : UTF-8
Codec ID : S_TEXT/UTF8
Codec ID/Info : UTF-8 Plain Text
Duration : 1 h 18 min
Bit rate : 64 b/s
Count of elements : 1281
Stream size : 37.2 KiB (0%)
Language : English
Default : No
Forced : No

Menu
00:00:00.000 : en:Chapter 01
00:08:35.890 : en:Chapter 02
00:17:30.383 : en:Chapter 03
00:27:37.823 : en:Chapter 04
00:36:30.688 : en:Chapter 05
00:44:25.204 : en:Chapter 06
00:51:21.453 : en:Chapter 07
00:57:24.232 : en:Chapter 08
01:04:08.720 : en:Chapter 09
01:13:58.017 : en:Chapter 10
01:18:54.188 : en:Chapter 11
Скріншоти:


Запис/синхронізація/ріп: sergiyko


 Трекер:    Зареєстрований   

Завантажити / скачати мультфільм українською



відео для новачків



 Зареєстрований:   2020-10-16 12:19
 Розмір:   1.33 GB 
 Оцінка мультфільму:   10/10 (Голосів: 5)
   
Ваш часовий пояс: GMT + 2 Години

Нова тема   Відповісти