Кіт у чоботях / Puss in Boots (2011) Remux 1080p Ukr/Eng | Sub 2xUkr/Eng

Нові коментарі

Нова тема   Відповісти
Автор Повідомлення
Anonymous 







2020-10-15 03:08  
Кіт у чоботях / Puss in Boots (2011) Remux 1080p Ukr/Eng | Sub 2xUkr/Eng

Кіт у чоботях / Puss in Boots (2011) Remux 1080p Ukr/Eng | Sub 2xUkr/Eng


Жанр: анімація, пригодницький, комедія
Країна: США
Кінокомпанія: DreamWorks Animation
Режисер: Кріс Міллер (Chris Miller)
Актори: Антоніо Бандерас (Antonio Banderas), Сальма Хаєк (Salma Hayek), Зак Галіфіанакіс (Zach Galifianakis), Біллі Боб Торнтон (Billy Bob Thornton), Емі Седаріс (Amy Sedaris), Констанс Мері (Constance Marie), Гільєрмо дель Торо (Guillermo del Toro), Річ Дітл (Rich Dietl), Райан Крего (Ryan Crego), Том Вілер (Tom Wheeler)

Сюжет:
Як і в кожного легендарного героя, у Кота було важке дитинство – ще немовлям він потрапив у дитячий притулок маленького іспанського (чи мексиканського?) містечка. Там Кіт зустрів яйце на ім'я Хитун Александр Бовтун, який ще у дитинстві склав хитрий план викрадення гуски, що несе золоті яйця. Допомогти у його здійсненні мали чарівні боби.

Друзі організували Бобовий клуб (головне правило якого – "нікому не розповідати про Бобовий клуб") і стали шукати способи наблизитися до своєї мрії. Згодом Кіт розпочав свій шлях народного героя та рятівника бабусь, а Бовтун, засліплений жадобою багатства, потрапив у в'язницю. Через сім років і вони знову возз'єдналися, аби згадати старі часи та вкрасти омріяну гуску. Допомагає їм у цьому красуня Кицька М'яколапка.

Пухнастий герой картини, мов справжній мачо-супермен, танцює, б'ється на шпагах, зваблює гарненьких киць, зачаровує своєю тваринною харизмою та від'їздить у захід сонця на баскому скакуні.

Тривалість: 01:30:14
Якість: Remux

Відео:
кодек:
розмір кадру: 1920 x 1080
бітрейт: 26 837 кб/с

Аудіо # 1:
мова: українська
переклад: професійний дубльований
кодек: AC-3 5.1
бітрейт: 640 кб/с

Аудіо # 2:
мова: англійська
переклад: оригінал
кодек: TrueHD 7.1
бітрейт: 3987 кб/с

Субтитри # 1-5: (Forced, Full from Netflix, Full)
мова: українська
тип: програмні (м'які), пререндерні
формат: *.srt, *.pgs

Субтитри # 6-9: (Full, SDH, SDH-Colored)
мова: англійська
тип: пререндерні, програмні (м'які)
формат: *.pgs, *.srt


Info
Код:
General
Unique ID                                : 69693553779740258246231176235457068980 (0x346E7D7EC39AEC8C6907D83E86463FB4)
Complete name                            : Puss in Boots (2011) Remux 1080p [UKR_ENG] [Hurtom].
Format                                   :
Format version                           : Version 4
File size                                : 19.9 GiB
Duration                                 : 1 h 30 min
Overall bit rate mode                    : Variable
Overall bit rate                         : 31.6 Mb/s
Movie name                               : Кіт у чоботях / Puss in Boots (2011)
Encoded date                             : UTC 2020-10-18 18:27:37
Writing application                      : v20.0.0 ('I Am The Sun') 64-bit
Writing library                          : libebml v1.3.5 + v1.4.8
Cover                                    : Yes
Attachments                              : Cover.jpg

Video
ID                                       : 1
Format                                   : AVC
Format/Info                              : Advanced Video Codec
Format profile                           : [email protected]
Format settings                          : CABAC / 4 Ref Frames
Format settings, CABAC                   : Yes
Format settings, Reference frames        : 4 frames
Codec ID                                 : V_MPEG4/ISO/AVC
Duration                                 : 1 h 30 min
Bit rate mode                            : Variable
Bit rate                                 : 26.8 Mb/s
Maximum bit rate                         : 30.0 Mb/s
Width                                    : 1 920 pixels
Height                                   : 1 080 pixels
Display aspect ratio                     : 16:9
Frame rate mode                          : Constant
Frame rate                               : 23.976 (24000/1001) FPS
Color space                              : YUV
Chroma subsampling                       : 4:2:0
Bit depth                                : 8 bits
Scan type                                : Progressive
Bits/(Pixel*Frame)                       : 0.540
Stream size                              : 16.9 GiB (85%)
Title                                    : Кіт у чоботях / Puss in Boots (2011)
Default                                  : Yes
Forced                                   : No

Audio #1
ID                                       : 2
Format                                   : AC-3
Format/Info                              : Audio Coding 3
Commercial name                          : Dolby Digital
Codec ID                                 : A_AC3
Duration                                 : 1 h 30 min
Bit rate mode                            : Constant
Bit rate                                 : 640 kb/s
Channel(s)                               : 6 channels
Channel layout                           : L R C LFE Ls Rs
Sampling rate                            : 48.0 kHz
Frame rate                               : 31.250 FPS (1536 SPF)
Compression mode                         : Lossy
Stream size                              : 413 MiB (2%)
Title                                    : / 5.1 Ch / 640 kbps / DUB / Blu-Ray
Language                                 : Ukrainian
Service kind                             : Complete Main
Default                                  : Yes
Forced                                   : Yes

Audio #2
ID                                       : 3
Format                                   : MLP FBA
Format/Info                              : Meridian Lossless Packing FBA
Commercial name                          : Dolby TrueHD
Codec ID                                 : A_TRUEHD
Duration                                 : 1 h 30 min
Bit rate mode                            : Variable
Bit rate                                 : 3 984 kb/s
Maximum bit rate                         : 6 129 kb/s
Channel(s)                               : 8 channels
Channel layout                           : L R C LFE Ls Rs Lb Rb
Sampling rate                            : 48.0 kHz
Frame rate                               : 1 200.000 FPS (40 SPF)
Compression mode                         : Lossless
Stream size                              : 2.51 GiB (13%)
Title                                    : TrueHD / 7.1 Ch / 3984 kbps / Original
Language                                 : English
Default                                  : No
Forced                                   : No

Text #1
ID                                       : 4
Format                                   : UTF-8
Codec ID                                 : S_TEXT/UTF8
Codec ID/Info                            : UTF-8 Plain Text
Duration                                 : 1 h 16 min
Bit rate                                 : 0 b/s
Count of elements                        : 8
Stream size                              : 305 Bytes (0%)
Title                                    : Forced
Language                                 : Ukrainian
Default                                  : Yes
Forced                                   : Yes

Text #2
ID                                       : 5
Format                                   : UTF-8
Codec ID                                 : S_TEXT/UTF8
Codec ID/Info                            : UTF-8 Plain Text
Duration                                 : 1 h 29 min
Bit rate                                 : 64 b/s
Count of elements                        : 920
Stream size                              : 42.4 KiB (0%)
Title                                    : Full from Netflix
Language                                 : Ukrainian
Default                                  : No
Forced                                   : No

Text #3
ID                                       : 6
Format                                   : UTF-8
Codec ID                                 : S_TEXT/UTF8
Codec ID/Info                            : UTF-8 Plain Text
Duration                                 : 1 h 29 min
Bit rate                                 : 61 b/s
Count of elements                        : 904
Stream size                              : 40.5 KiB (0%)
Title                                    : Full
Language                                 : Ukrainian
Default                                  : No
Forced                                   : No

Text #4
ID                                       : 7
Format                                   : PGS
Muxing mode                              : zlib
Codec ID                                 : S_HDMV/PGS
Codec ID/Info                            : Picture based subtitle format used on BDs/HD-DVDs
Duration                                 : 1 h 27 min
Bit rate                                 : 296 b/s
Count of elements                        : 18
Stream size                              : 190 KiB (0%)
Title                                    : Forced
Language                                 : Ukrainian
Default                                  : No
Forced                                   : No

Text #5
ID                                       : 8
Format                                   : PGS
Muxing mode                              : zlib
Codec ID                                 : S_HDMV/PGS
Codec ID/Info                            : Picture based subtitle format used on BDs/HD-DVDs
Duration                                 : 1 h 29 min
Bit rate                                 : 32.1 kb/s
Count of elements                        : 1816
Stream size                              : 20.6 MiB (0%)
Title                                    : Full
Language                                 : Ukrainian
Default                                  : No
Forced                                   : No

Text #6
ID                                       : 9
Format                                   : PGS
Muxing mode                              : zlib
Codec ID                                 : S_HDMV/PGS
Codec ID/Info                            : Picture based subtitle format used on BDs/HD-DVDs
Duration                                 : 1 h 29 min
Bit rate                                 : 34.9 kb/s
Count of elements                        : 1774
Stream size                              : 22.4 MiB (0%)
Title                                    : Full
Language                                 : English
Default                                  : No
Forced                                   : No

Text #7
ID                                       : 10
Format                                   : UTF-8
Codec ID                                 : S_TEXT/UTF8
Codec ID/Info                            : UTF-8 Plain Text
Duration                                 : 1 h 20 min
Bit rate                                 : 47 b/s
Count of elements                        : 986
Stream size                              : 28.2 KiB (0%)
Title                                    : Full
Language                                 : English
Default                                  : No
Forced                                   : No

Text #8
ID                                       : 11
Format                                   : UTF-8
Codec ID                                 : S_TEXT/UTF8
Codec ID/Info                            : UTF-8 Plain Text
Duration                                 : 1 h 20 min
Bit rate                                 : 61 b/s
Count of elements                        : 1310
Stream size                              : 36.3 KiB (0%)
Title                                    : SDH
Language                                 : English
Default                                  : No
Forced                                   : No

Text #9
ID                                       : 12
Format                                   : UTF-8
Codec ID                                 : S_TEXT/UTF8
Codec ID/Info                            : UTF-8 Plain Text
Duration                                 : 1 h 20 min
Bit rate                                 : 91 b/s
Count of elements                        : 1304
Stream size                              : 54.0 KiB (0%)
Title                                    : SDH-Colored
Language                                 : English
Default                                  : No
Forced                                   : No

Menu
00:00:00.000                             : en:Opening Credits & Intro
00:03:25.246                             : en:Puss in Bar
00:07:20.148                             : en:Jack and Jill
00:11:46.831                             : en:Dance Fight
00:15:53.369                             : en:Kitty Softpaws Intro
00:19:23.537                             : en:Story Behind the Past
00:25:58.348                             : en:Brothers Forever
00:29:22.427                             : en:No Stealing Anymore
00:34:06.461                             : en:Stealing the "Magic Beans"
00:39:17.438                             : en:Planting the "Magic Beans"
00:44:12.107                             : en:The Giant's Castle
00:49:34.054                             : en:The Goldern Goose
00:54:05.951                             : en:Happy Movement
00:57:38.204                             : en:Telling the Revenge
01:03:05.990                             : en:Puss in Prison
01:08:14.715                             : en:Saving "San Ricardo"
01:16:51.773                             : en:He's no Outlaw... He's a Hero
01:19:42.194                             : en:Glitter Box & End Credits
Світлини




Джерело: &
Особиста оцінка: 10 - без зайвих вагань рекомендую всім!


Золотий реліз (завантажене не впливає на рейтинг)
 Трекер:    Зареєстрований   

Завантажити / скачати мультфільм українською



відео для новачків



 Зареєстрований:   2020-10-18 21:35
 Розмір:   19.89 GB 
 Оцінка мультфільму:   10/10 (Голосів: 4)
   
Ваш часовий пояс: GMT + 2 Години

Нова тема   Відповісти