Трансформери / Transformers: The Movie (1986) Remux 1080p [30th Anniversary Edition, Fullscreen] Ukr/Eng | Sub Ukr/Eng

Нові коментарі

Нова тема   Відповісти
Автор Повідомлення
MakRA 
VIP


З нами з: 10.11.18
Востаннє: 05.03.21
Повідомлень: 1190

2020-10-15 02:04  
Трансформери / Transformers: The Movie (1986) Remux 1080p [30th Anniversary Edition, Fullscreen] Ukr/Eng | Sub Ukr/Eng

Трансформери / Transformers: The Movie (1986) Remux 1080p [30th Anniversary Edition, Fullscreen] Ukr/Eng | Sub Ukr/Eng


Жанр: анімація, екшн, пригодницький, сімейний, фантастика
Країна: США , Японія



Кінокомпанія: Sunbow Productions, Marvel Productions, Hasbro
Режисер: Нельсон Шин [Nelson Shin]
Актори: Норман Елден [Norman Alden], Джек Ейнджел [Jack Angel], Майкл Белл [Michael Bell], Грегг Бергер [Gregg Berger], Сьюзен Блу [Susan Blu], Артур Бергхардт [Arthur Burghardt], Корі Бертон [Corey Burton], Роджер С. Кармел [Roger C. Carmel]

Сюжет:
Автоботи і Обманоїди продовжують війну за контроль над територією. Війська Мегатрона завоювали Кібертрон, але Автоботи готові це змінити. У масштабному конфлікті старі герої ляжуть і нові повстануть, тоді як планета - демон Юнікрон наближатиметься до їх рідного світу.


Тривалість: 01:24:50
Якість: Remux 1080p [30th Anniversary Edition, Fullscreen] - порівняння Fullscreen 4:3 та Widescreen 16:9 версій
Відео:
кодек:
розмір кадру: 1920 х 1080
бітрейт: 35 Mб/с

Аудіо # 1:
мова: українська
переклад: професійний дубльований | Solarice
кодек: 2.0
бітрейт: 192 кб/с

Аудіо # 2:
мова: англійська
переклад: оригінал
кодек: -HD MA 5.1
бітрейт: 4389 кб/с

Аудіо # 3:
мова: англійська
переклад: оригінал
кодек: -HD MA 2.0
бітрейт: 1752 кб/с

Аудіо # 4:
мова: англійська
переклад: Commentary by Director Nelson Shin, Story Consultant Flint Dille and Star Su
кодек: 2.0
бітрейт: 192 кб/с

Аудіо # 5:
мова: англійська
переклад: Fan Commentary with Paul Hitchens, Rik Alvarez, Alex Weiner and Joe Moore
кодек: PCM
бітрейт: 1536 кб/с

Субтитри # 1: (Full)
мова: українська
тип: програмні (м'які)
формат: *.srt

Субтитри # 2: (Full)
мова: англійська
тип: програмні (м'які)
формат: *.srt

Субтитри # 3: (SDH)
мова: англійська
тип: пререндерні
формат: *.pgs

Збережено оригінальні розділи, як на Blu-ray.
Info
General
Unique ID : 28853304454635216301806196004499488231 (0x15B4F1BDEE64290B87AFA0DE161BFDE7)
Complete name : I:\+ Мультфільми в HD\Transformers The Movie (1986) Remux 1080p [30th Anniversary Edition, Fullscreen] UkrEng Sub UkrEng [Hurtom].
Format :
Format version : Version 4
File size : 25.0 GiB
Duration : 1 h 24 min
Overall bit rate mode : Variable
Overall bit rate : 42.1 Mb/s
Movie name : Трансформери / Transformers: The Movie (1986) Remux 1080p [30th Anniversary Edition, Fullscreen] Ukr/Eng | Sub Ukr/Eng [Hurtom]
Encoded date : UTC 2020-10-15 07:40:00
Writing application : v51.0.0 ('I Wish') 64-bit
Writing library : libebml v1.4.0 + v1.6.2
Cover : Yes
Attachments : cover.jpg

Video
ID : 1
Format : AVC
Format/Info : Advanced Video Codec
Format profile : [email protected]
Format settings : CABAC / 4 Ref Frames
Format settings, CABAC : Yes
Format settings, Reference fra : 4 frames
Codec ID : V_MPEG4/ISO/AVC
Duration : 1 h 24 min
Bit rate mode : Constant
Bit rate : 35.0 Mb/s
Width : 1 920 pixels
Height : 1 080 pixels
Display aspect ratio : 16:9
Frame rate mode : Constant
Frame rate : 23.976 (24000/1001) FPS
Color space : YUV
Chroma subsampling : 4:2:0
Bit depth : 8 bits
Scan type : Progressive
Bits/(Pixel*Frame) : 0.704
Stream size : 20.2 GiB (81%)
Title : Transformers: The Movie (1986) Remux 1080p [30th Anniversary Edition, Fullscreen] Ukr/Eng | Sub Ukr/Eng [Hurtom]
Language : Ukrainian
Default : Yes
Forced : Yes

Audio #1
ID : 2
Format : AC-3
Format/Info : Audio Coding 3
Commercial name : Dolby Digital
Codec ID : A_AC3
Duration : 1 h 24 min
Bit rate mode : Constant
Bit rate : 192 kb/s
Channel(s) : 2 channels
Channel layout : L R
Sampling rate : 48.0 kHz
Frame rate : 31.250 FPS (1536 SPF)
Compression mode : Lossy
Stream size : 117 MiB (0%)
Title : DUB [UKR] 2.0 | Solarice
Language : Ukrainian
Service kind : Complete Main
Default : Yes
Forced : Yes

Audio #2
ID : 3
Format : XLL
Format/Info : Digital Theater Systems
Commercial name : -HD Master Audio
Codec ID : A_DTS
Duration : 1 h 24 min
Bit rate mode : Variable
Bit rate : 4 389 kb/s
Channel(s) : 6 channels
Channel layout : C L R Ls Rs LFE
Sampling rate : 48.0 kHz
Frame rate : 93.750 FPS (512 SPF)
Bit depth : 24 bits
Compression mode : Lossless
Stream size : 2.60 GiB (10%)
Title : Original -HD MA 5.1
Language : English
Default : No
Forced : No

Audio #3
ID : 4
Format : XLL
Format/Info : Digital Theater Systems
Commercial name : -HD Master Audio
Codec ID : A_DTS
Duration : 1 h 24 min
Bit rate mode : Variable
Bit rate : 1 752 kb/s
Channel(s) : 2 channels
Channel layout : L R
Sampling rate : 48.0 kHz
Frame rate : 93.750 FPS (512 SPF)
Bit depth : 24 bits
Compression mode : Lossless
Stream size : 1.04 GiB (4%)
Title : Original -HD MA 2.0
Language : English
Default : No
Forced : No

Audio #4
ID : 5
Format : AC-3
Format/Info : Audio Coding 3
Commercial name : Dolby Digital
Codec ID : A_AC3
Duration : 1 h 24 min
Bit rate mode : Constant
Bit rate : 192 kb/s
Channel(s) : 2 channels
Channel layout : L R
Sampling rate : 48.0 kHz
Frame rate : 31.250 FPS (1536 SPF)
Compression mode : Lossy
Stream size : 117 MiB (0%)
Title : Original 2.0 | Commentary by Director Nelson Shin, Story Consultant Flint Dille and Star Susan Blu
Language : English
Service kind : Complete Main
Default : No
Forced : No

Audio #5
ID : 6
Format : PCM
Format settings : Little / Signed
Codec ID : A_PCM/INT/LIT
Duration : 1 h 24 min
Bit rate mode : Constant
Bit rate : 1 536 kb/s
Channel(s) : 2 channels
Sampling rate : 48.0 kHz
Frame rate : 32.000 FPS (1500 SPF)
Bit depth : 16 bits
Stream size : 932 MiB (4%)
Title : Original PCM 2.0 | Fan Commentary with Paul Hitchens, Rik Alvarez, Alex Weiner and Joe Moore
Language : English
Default : No
Forced : No

Text #1
ID : 7
Format : UTF-8
Codec ID : S_TEXT/UTF8
Codec ID/Info : UTF-8 Plain Text
Duration : 1 h 23 min
Bit rate : 67 b/s
Count of elements : 770
Stream size : 41.2 KiB (0%)
Title : Ukr (Full) SRT
Language : Ukrainian
Default : No
Forced : No

Text #2
ID : 8
Format : UTF-8
Codec ID : S_TEXT/UTF8
Codec ID/Info : UTF-8 Plain Text
Duration : 1 h 23 min
Bit rate : 42 b/s
Count of elements : 909
Stream size : 26.2 KiB (0%)
Title : Eng (SDH) SRT
Language : English
Default : No
Forced : No

Text #3
ID : 9
Format : PGS
Muxing mode : zlib
Codec ID : S_HDMV/PGS
Codec ID/Info : Picture based subtitle format used on BDs/HD-DVDs
Duration : 1 h 23 min
Bit rate : 45.2 kb/s
Count of elements : 1354
Stream size : 26.9 MiB (0%)
Title : Eng (SDH) PGS
Language : English
Default : No
Forced : No

Menu
00:00:00.000 : en:Chapter 1
00:07:06.008 : en:Chapter 2
00:11:59.552 : en:Chapter 3
00:19:24.997 : en:Chapter 4
00:26:26.668 : en:Chapter 5
00:37:00.843 : en:Chapter 6
00:44:19.948 : en:Chapter 7
00:51:11.610 : en:Chapter 8
00:56:46.986 : en:Chapter 9
01:03:54.997 : en:Chapter 10
01:11:08.555 : en:Chapter 11
01:18:59.401 : en:Chapter 12
Скріншоти
Джерело: &
Українські субтитри - Hentaihunter
Особиста оцінка: 10 - без зайвих вагань рекомендую всім!


Золотий реліз (завантажене не впливає на рейтинг)
 Трекер:    Зареєстрований   

Завантажити / скачати мультфільм українською



відео для новачків



 Зареєстрований:   2020-10-15 10:19
 Розмір:   24.97 GB 
 Оцінка мультфільму:   10/10 (Голосів: 5)
   
Інші релізи
   Трансформери / Transformers: The Movie (1986) 720p Ukr/Eng | Sub Ukr/Eng staf777  7 / 0   7.37 GB   2018-06-05 20:15 
   Трансформери / Transformers: The Movie (1986) 6c6c6  6 / 0   757 MB   2008-02-19 00:02 
bot 
робот


З нами з: 30.09.07
Востаннє: 26.05.05
Повідомлень: 27312

2020-10-15 02:05  
Тему перенесено з Мультфільми в HD до форуму Анонси релізів


MakRA

bot 
робот


З нами з: 30.09.07
Востаннє: 26.05.05
Повідомлень: 27312

2020-10-15 10:18  
Тему перенесено з Анонси релізів до форуму Мультфільми в HD


MakRA

Acid Crash 
Новенький


З нами з: 05.11.13
Востаннє: 05.03.21
Повідомлень: 16

2020-10-15 12:18  
Вітаю,
1080p не плануєте зробити?

MakRA 
VIP


З нами з: 10.11.18
Востаннє: 05.03.21
Повідомлень: 1190

2020-10-15 12:37  
Acid Crash написано:
1080p не плануєте зробити?

Він то ніби і є зроблений Wide grin

Acid Crash 
Новенький


З нами з: 05.11.13
Востаннє: 05.03.21
Повідомлень: 16

2020-10-15 12:44  
Ой, я мав на увазі з меншим розміром.
Хоч і ностальгія за фільмом досить висока, але 24 Gb якось забагато...

dante1_kiev 
Новенький


З нами з: 09.04.12
Востаннє: 05.03.21
Повідомлень: 6

2020-10-17 20:39  
Acid Crash написано:
Transformers: The Movie

це не ріп, а ремукс без стиснення, ріп качай з моєї роздачі: 6 гб 1080 теж фулскрін

Ваш часовий пояс: GMT + 2 Години

Нова тема   Відповісти