Страсті Христові / The Passion of the Christ (2004) Remux 1080p Ukr/Aram/Lat/Hebr | Sub Ukr/Eng

Нові коментарі

Нова тема   Відповісти
Автор Повідомлення
Студія Hurtom 
Відео Гуртом - фільмокрай
Відео Гуртом - фільмокрай


З нами з: 16.01.15
Востаннє: 23.10.20
Повідомлень: 740

2020-10-14 22:53  
Страсті Христові / The Passion of the Christ (2004) Remux 1080p Ukr/Aram/Lat/Hebr | Sub Ukr/Eng

Страсті Христові / The Passion of the Christ (2004) Remux 1080p Ukr/Aram/Lat/Hebr | Sub Ukr/Eng


Жанр: драма, історичний, християнський
Країна: США



Кінокомпанія / телеканал: Icon Productions
Режисер: Мел Ґібсон
Актори/ролі озвучують: Джеймс Кевізел, Майя Морґенштерн, Хрісто Дживков, Франческо Де Віто, Моніка Беллуччі, Маттіа Сбраджа, Тоні Бертореллі та інші

Сюжет:
Фільм - перша в історії кіно спроба детально відтворити останні дванадцять годин з життя Ісуса Христа: від Гефсиманського саду до розп'яття. На відміну від "Останньої спокуси Христа", ця картина не містить в собі апокрифів і була схвалена різними християнськими конфесіями. Дія картини починається в Гефсиманському саду, куди Ісус прийшов помолитися після таємної вечері. Ісус чинить опір спокусам, яким піддає його сатана. Зраджений Юдою Іскаріотом, Ісус заарештований. Його приводять назад у Єрусалим, де проводирі фарисеїв звинувачують його в богохульстві, і суд над ним завершується смертним вироком. Прокуратор Пілат вислуховує звинувачення, висунуті фарисеями. Зрозумівши, що мова йде про політичний конфлікт, Пілат передає справу царю Іроду. Ірод посилає Ісуса до Пілата, і той пропонує натовпу зробити вибір між Ісусом і розбійником Варравою. Натовп обирає: свободу Варраві і смерть Ісусу. Ісуса передають римським солдатам і піддають тортурам. Спотвореного до невпізнання його знову приводять до Пілата, який показує його натовпу, ніби кажучи: "Хіба цього недостатньо?" Юрбі недостатньо. Пілат вмиває руки і наказує зробити так, як бажає натовп. Ісусові дають хрест і наказують пронести його по вулицях Єрусалиму до самої Голгофи. На Голгофі Ісуса розпинають, і він проходить через останню спокусу: страх, що Батько покинув його. Він долає цей страх, дивиться на свою матір Марію і вимовляє слова, які може зрозуміти до кінця тільки вона: "Звершилось".


Тривалість: 02:06:32
Якість: Blu-ray
Відео:
кодек:
розмір кадру: 1920x1080
бітрейт: ~22.4 Mб/с

Аудіо # 1:
мова: українська
переклад: багатоголосий закадровий
кодек: 5.1
бітрейт: 640 кб/с

Аудіо # 2:
мова: арамейська, латина, гебрейська
переклад: оригінал
кодек: -HD 5.1
бітрейт: 3959 кб/с

Субтитри # 1:
мова: українська
тип: програмні (м'які)
формат: *.srt (написи)

Субтитри # 2:
мова: українська
тип: програмні (м'які)
формат: *.srt (повні)

Субтитри # 3:
мова: англійська
тип: програмні
формат: *.srt (Full)
Info
Код:

Video
ID                          : 1
Format                      : AVC
Format/Info                 : Advanced Video Codec
Format profile              : [email protected]
Format settings             : CABAC / 4 Ref Frames
Format settings, CABAC      : Yes
Format settings, Reference  : 4 frames
Codec ID                    : V_MPEG4/ISO/AVC
Duration                    : 2 h 6 min
Bit rate mode               : Variable
Bit rate                    : 22.4 Mb/s
Maximum bit rate            : 35.5 Mb/s
Width                       : 1 920 pixels
Height                      : 1 080 pixels
Display aspect ratio        : 16:9
Frame rate mode             : Constant
Frame rate                  : 23.976 (24000/1001) FPS
Color space                 : YUV
Chroma subsampling          : 4:2:0
Bit depth                   : 8 bits
Scan type                   : Progressive
Bits/(Pixel*Frame)          : 0.450
Stream size                 : 19.8 GiB (83%)
Default                     : Yes
Forced                      : No
Color range                 : Limited
Color primaries             : BT.709
Transfer characteristics    : BT.709
Matrix coefficients         : BT.709

Audio #1
ID                          : 2
Format                      : AC-3
Format/Info                 : Audio Coding 3
Commercial name             : Dolby Digital
Codec ID                    : A_AC3
Duration                    : 2 h 6 min
Bit rate mode               : Constant
Bit rate                    : 640 kb/s
Channel(s)                  : 6 channels
Channel layout              : L R C LFE Ls Rs
Sampling rate               : 48.0 kHz
Frame rate                  : 31.250 FPS (1536 SPF)
Compression mode            : Lossy
Stream size                 : 579 MiB (2%)
Language                    : Ukrainian
Service kind                : Complete Main
Default                     : Yes
Forced                      : Yes

Audio #2
ID                          : 3
Format                      : XLL
Format/Info                 : Digital Theater Systems
Commercial name             : -HD Master Audio
Codec ID                    : A_DTS
Duration                    : 2 h 6 min
Bit rate mode               : Variable
Bit rate                    : 3 959 kb/s
Channel(s)                  : 6 channels
Channel layout              : C L R Ls Rs LFE
Sampling rate               : 48.0 kHz
Frame rate                  : 93.750 FPS (512 SPF)
Bit depth                   : 24 bits
Compression mode            : Lossless
Stream size                 : 3.50 GiB (15%)
Language                    : Hebrew
Default                     : No
Forced                      : No

Text #1
ID                          : 4
Format                      : UTF-8
Codec ID                    : S_TEXT/UTF8
Codec ID/Info               : UTF-8 Plain Text
Duration                    : 7 s 777 ms
Bit rate                    : 225 b/s
Count of elements           : 2
Stream size                 : 219 Bytes (0%)
Title                       : TEXT ONLY
Language                    : Ukrainian
Default                     : Yes
Forced                      : No

Text #2
ID                          : 5
Format                      : UTF-8
Codec ID                    : S_TEXT/UTF8
Codec ID/Info               : UTF-8 Plain Text
Duration                    : 1 h 53 min
Bit rate                    : 27 b/s
Count of elements           : 522
Stream size                 : 22.6 KiB (0%)
Language                    : Ukrainian
Default                     : No
Forced                      : No

Text #3
ID                          : 6
Format                      : UTF-8
Codec ID                    : S_TEXT/UTF8
Codec ID/Info               : UTF-8 Plain Text
Duration                    : 1 h 51 min
Bit rate                    : 16 b/s
Count of elements           : 519
Stream size                 : 13.8 KiB (0%)
Language                    : English
Default                     : No
Forced                      : No
Скріншоти





Джерело:


Фільми, які було озвучено на замовлення Гуртом (допоможіть озвучити наступні):
М: Місто шукає вбивцю (1931)
Чарівник країни Оз (1939)
Великий диктатор (1940)
Громадянин Кейн (1941)
Подвійна страховка (1944)
Це дивовижне життя (1946)
Викрадачі велосипедів (1948)
Рашьомон (1950)
Сім самураїв (1954)
У випадку вбивства телефонуйте "М" (1954)
Дияволиці (1955)
Леді та Блудько (1955)
12 розгніваних чоловіків (1957)
Кривавий трон (1957)
Сьома печатка (1957)
На північ через північний захід (1959)
Більярдист (1961)
Охоронець (1961)
Вбити пересмішника (1962)
Людина, що вбила Ліберті Веленса (1962)
Вісім з половиною (1963)
Велика прогулянка (1966)
Як Ґрінч украв Різдво! (1966)
Випускник (1967)
Самурай (1967)
Одного разу на Дикому Заході (1968)
Коти-аристократи (1970)
Механічний апельсин (1971)
Навколо світу за 80 днів (1972)
Паперовий місяць (1973)
Китайський квартал (1974)
Пролітаючи над гніздом зозулі (1975)
Телемережа (1976)
Енні Голл (1977)
Мисливець на оленів (1978)
Буття Брайана за Монті Пайтоном (1979)
Коли я буду там (1979)
Мангеттен (1979)
Людина-слон (1980)
Приборкання норовливого (1980)
Скажений бик (1980)
Підводний човен (1981)
Ґанді (1982)
Король комедії (1982)
Різдвяна історія (1983)
Амадей (1984)
Просто кров (1984)
Барва пурпурова (1985)
Бразилія (1985)
Ран (1985)
Великий мишачий детектив (1986)
Небесний замок Лапута (1986)
Часи радіо (1987)
Акіра (1988)
Мій сусід Тоторо (1988)
Останній з могікан (1992)
Скажені пси (1992)
Шосе в нікуди (1997)
Американська історія Ікс (1998)
Страх і огида в Лас-Вегасі (1998)
Шоу Трумена (1998)
Догма (1999)
Магнолія (1999)
Сука любов (2000)
Нічия земля (2001)
Родина Тененбаумів (2001)
Тріо з Бельвіля (2003)
Труднощі перекладу (2003)
Бункер (2004)
Готель Руанда (2004)
Тренер Картер (2005)
Льодовиковий період 2 (2006)
Лабіринт Фавна (2006)
Людина з планети Земля (2007)
В тіні місяця (2007)
Голод (2008)
Іп Мен (2008)
Викрадена (2008)
Впусти мене (2008)
Хвиля (2008)
Містер Ніхто (2009)
13 вбивць (2010)
Бетмен: Під червоною маскою (2010)
Іп Мен 2 (2010)
Котяче життя (2010)
Позичайка Аріетті (2010)
Чорний Лебідь (2010)
Місто (2010)
Сенна (2010)
50/50 (2011)
Адвокат на лінкольні (2011)
Дерево життя (2011)
Опівночі в Парижі (2011)
Воїн (2011)
Драйв (2011)
Життя за один день (2011)
Укриття (2011)
Хижа в лісі (2011)
Рейд: Спокута (2011)
Акт вбивства (2012)
Арго (2012)
Безпека не гарантується (2012)
Викрадена 2 (2012)
Збірка промінців надії (2012)
Ернест і Селестіна (2012)
Звірі дикого Півдня (2012)
Лінкольн (2012)
Любов (2012)
Надійні хлопці (2012)
Паркер (2012)
Переваги скромників (2012)
Пліч-о-пліч (2012)
Полювання (2012)
Розірване коло (2012)
Суддя Дредд (2012)
Тридцять хвилин по півночі (2012)
Що б ви зробили (2012)
Американська афера (2013)
Виклик (2013)
Вона (2013)
Ворог (2013)
Всередині Л'ювіна Девіса (2013)
Джо (2013)
Зловісні мерці (2013)
Іда (2013)
Лок (2013)
Небраска (2013)
Неймовірна подорож містера Співета (2013)
Побічна дія (2013)
Перед північчю (2013)
Снігобур (2013)
Стокер (2013)
TPB: за межами клавіатури (2013)
Гниле місто (2013)
Бердмен (2014)
Вероніка Марс (2014)
Вроджена вада (2014)
Дика (2014)
Інтерв'ю (2014)
Святий Вінсент (2014)
Пісня моря (2014)
Призначення (2014)
Чим ми займаємося в тінях (2014)
Шеф-кухар (2014)
Безрідні звірі (2015)
Бруклін (2015)
Земля картелів (2015) нове
Кімната (2015)
Я, Ерл та помираюча дівчина (2015)
Манчестер біля моря (2016) нове
Нічні звірі (2016) нове


Авторський реліз (завантажувати можна без реєстрації)
 Трекер:    Зареєстрований   

Завантажити / скачати фільм українською



відео для новачків



 Зареєстрований:   2020-10-14 22:53
 Розмір:   23.85 GB 
 Оцінка фільму:   8.7/10 (Голосів: 15)
   
Інші релізи
   Страсті Христові / The Passion of the Christ (2004) 1080p H.265 2xUkr/Aramr | Sub 2xUkr/Eng -Star-Lord-  4 / 0   9.16 GB   2020-10-15 13:06 
   Страсті Христові / The Passion of the Christ (2004) AVC Студія Hurtom  12 / 0   1.59 GB   2020-10-14 22:53 
   Страсті Христові / The Passion of the Christ (2004) 720p Ukr/Aram/Lat/Hebr | Sub Ukr/Eng Студія Hurtom  9 / 0   4.58 GB   2020-10-14 22:53 
   Страсті Христові / The Passion of the Christ (2004) 1080p Ukr/Aram/Lat/Hebr | Sub Ukr/Eng Студія Hurtom  6 / 0   7.19 GB   2020-10-14 22:53 
   Страсті Христові / The Passion of the Christ (2004) Remux 1080p Ukr/Aram/Lat/Hebr | Sub Ukr/Eng famous37  7 / 0   23.45 GB   2016-01-29 16:40 
   Страсті Христові / The Passion of the Christ (2004) AVC Ukr/Aram | Sub Ukr patriot2305  11 / 0   2.47 GB   2015-04-21 17:13 
   Страсті Христові / The Passion of the Christ (2004) 720p Aram | Sub Ukr/Eng braveboy  2 / 0   4.37 GB   2012-04-17 03:42 
   Страсті Христові / The Passion of the Christ (2004) Mister rock  7 / 0   1.56 GB   2010-09-21 23:25 
   Страсті Христові / The Passion of the Christ (2004) DVD5 Aram/Lat/Hebr | Sub Ukr/Eng/Esp Малдер  0 / 0   4.37 GB   2010-05-09 11:53 
   Страсті Христові / The Passion of the Christ (2004) | Ukr sub Givi  0 / 2   1.56 GB   2010-01-10 20:40 
Ваш часовий пояс: GMT + 2 Години

Нова тема   Відповісти