Стара гвардія / The Old Guard (2020) 720p Ukr/Eng | Sub Ukr/Eng

Нові коментарі

Нова тема   Відповісти
Автор Повідомлення
Anonymous 







2020-10-14 22:07  
Стара гвардія / The Old Guard (2020) 720p Ukr/Eng | Sub Ukr/Eng

Стара гвардія / The Old Guard (2020) 720p Ukr/Eng | Sub Ukr/Eng
Альтернативний український постер:



Жанр: бойовик, фантастика, пригодницький
Країна: США



Кінокомпанія: Netflix, Denver and Delilah Productions, Dune Films, Image Comics
Актори: Шарліз Терон, Чиветел Еджіофор, Гаррі Меллінґ, Маттіас Шонартс, Наташа Карам, Марван Кензарі, Ван Вероніка Нґо та інші

Сюжет:
У центрі сюжету – група безсмертних воїнів. Герої протягом століть працювали найманцями, але за весь цей час так і не змогли зрозуміти, чому вони не можуть померти. А в якийсь момент одна впливова компанія відкриває полювання на членів цієї групи, щоб розкрити таємницю їх безсмертя.
Український трейлер:

Рейтинг MPAA: R - особам до 17 років обов'язкова присутність батьків або дорослого опікуна
Вікова категорія: 16+

Тривалість: 02:04:28
Якість:
Відео:
кодек:
розмір кадру: 1280 х 536
бітрейт: 6119 кб/с

Аудіо # 1:
мова: українська
озвучення: професійне багатоголосе закадрове
кодек: 5.1
бітрейт: 640 кб/с
примітка: на озвучення проходив збір коштів https://toloka.to/t111639

Аудіо # 2:
мова: англійська
переклад: оригінал
кодек: 5.1
бітрейт: 640 кб/с

Субтитри # 1-2: (Forced, Full)
мова: українська
тип: програмні (м'які)
формат: *.srt

Субтитри # 3-5: (Forced, Full, SDH)
мова: англійська
тип: програмні (м'які)
формат: *.srt
Info
Код:
Complete name               : The Old Guard (2020) [Ukr,Eng sub.Ukr,Eng] 720p [Hurtom].
Format                      :
Format version              : Version 4
File size                   : 6.44 GiB
Duration                    : 2 h 4 min
Overall bit rate            : 7 402 kb/s
Movie name                  : Стара гвардія / The Old Guard (2020) [Ukr,Eng sub.Ukr,Eng] 720p [Hurtom]
Encoded date                : UTC 2020-10-15 08:56:04
Writing application         : v51.0.0 ('I Wish') 64-bit
Writing library             : libebml v1.4.0 + v1.6.2
Cover                       : Yes
Attachments                 : cover.jpg

Video
ID                          : 1
Format                      : AVC
Format/Info                 : Advanced Video Codec
Format profile              : [email protected]
Format settings             : CABAC / 12 Ref Frames
Format settings, CABAC      : Yes
Format settings, Reference  : 12 frames
Codec ID                    : V_MPEG4/ISO/AVC
Duration                    : 2 h 4 min
Bit rate                    : 6 119 kb/s
Width                       : 1 280 pixels
Height                      : 536 pixels
Display aspect ratio        : 2.40:1
Frame rate mode             : Constant
Frame rate                  : 24.000 FPS
Color space                 : YUV
Chroma subsampling          : 4:2:0
Bit depth                   : 8 bits
Scan type                   : Progressive
Bits/(Pixel*Frame)          : 0.372
Stream size                 : 5.32 GiB (83%)
Title                       : Стара гвардія / The Old Guard (2020) 720p [NF,NTb]
Writing library             : core 157 r2969 d4099dd
Encoding settings           : cabac=1 / ref=12 / deblock=1:-3:-3 / analyse=0x3:0x133 / me=umh / subme=10 / psy=1 / psy_rd=1.00:0.00 / mixed_ref=1 / me_range=48 / chroma_me=1 / trellis=2 / 8x8dct=1 / cqm=0 / deadzone=21,11 / fast_pskip=0 / chroma_qp_offset=-2 / threads=12 / lookahead_threads=4 / sliced_threads=0 / nr=0 / decimate=0 / interlaced=0 / bluray_compat=0 / constrained_intra=0 / bframes=9 / b_pyramid=0 / b_adapt=2 / b_bias=0 / direct=3 / weightb=1 / open_gop=0 / weightp=2 / keyint=250 / keyint_min=24 / scenecut=40 / intra_refresh=0 / rc_lookahead=60 / rc=crf / mbtree=0 / crf=17.5 / qcomp=0.60 / qpmin=10 / qpmax=51 / qpstep=4 / vbv_maxrate=62500 / vbv_bufsize=78125 / crf_max=0.0 / nal_hrd=none / filler=0 / ip_ratio=1.40 / pb_ratio=1.30 / aq=3:0.75
Language                    : English
Default                     : Yes
Forced                      : No

Audio #1
ID                          : 2
Format                      : AC-3
Format/Info                 : Audio Coding 3
Commercial name             : Dolby Digital
Codec ID                    : A_AC3
Duration                    : 2 h 4 min
Bit rate mode               : Constant
Bit rate                    : 640 kb/s
Channel(s)                  : 6 channels
Channel layout              : L R C LFE Ls Rs
Sampling rate               : 48.0 kHz
Frame rate                  : 31.250 FPS (1536 SPF)
Compression mode            : Lossy
Stream size                 : 570 MiB (9%)
Title                       : MVO, 5.1 640 Kbps
Language                    : Ukrainian
Service kind                : Complete Main
Default                     : Yes
Forced                      : Yes

Audio #2
ID                          : 3
Format                      : AC-3
Format/Info                 : Audio Coding 3
Commercial name             : Dolby Digital
Codec ID                    : A_AC3
Duration                    : 2 h 4 min
Bit rate mode               : Constant
Bit rate                    : 640 kb/s
Channel(s)                  : 6 channels
Channel layout              : L R C LFE Ls Rs
Sampling rate               : 48.0 kHz
Frame rate                  : 31.250 FPS (1536 SPF)
Compression mode            : Lossy
Stream size                 : 570 MiB (9%)
Title                       : Original, 5.1 640 Kbps
Language                    : English
Service kind                : Complete Main
Default                     : No
Forced                      : No

Text #1
ID                          : 4
Format                      : UTF-8
Codec ID                    : S_TEXT/UTF8
Codec ID/Info               : UTF-8 Plain Text
Duration                    : 2 h 3 min
Bit rate                    : 1 b/s
Count of elements           : 22
Stream size                 : 1.01 KiB (0%)
Title                       : Ukr Forced
Language                    : Ukrainian
Default                     : Yes
Forced                      : Yes

Text #2
ID                          : 5
Format                      : UTF-8
Codec ID                    : S_TEXT/UTF8
Codec ID/Info               : UTF-8 Plain Text
Duration                    : 1 h 54 min
Bit rate                    : 54 b/s
Count of elements           : 1172
Stream size                 : 45.3 KiB (0%)
Title                       : Ukr Full
Language                    : Ukrainian
Default                     : No
Forced                      : No

Text #3
ID                          : 6
Format                      : UTF-8
Codec ID                    : S_TEXT/UTF8
Codec ID/Info               : UTF-8 Plain Text
Duration                    : 1 h 12 min
Bit rate                    : 0 b/s
Count of elements           : 16
Stream size                 : 264 Bytes (0%)
Title                       : Eng Forced
Language                    : English
Default                     : No
Forced                      : No

Text #4
ID                          : 7
Format                      : UTF-8
Codec ID                    : S_TEXT/UTF8
Codec ID/Info               : UTF-8 Plain Text
Duration                    : 1 h 56 min
Bit rate                    : 40 b/s
Count of elements           : 1280
Stream size                 : 34.6 KiB (0%)
Title                       : Eng Full
Language                    : English
Default                     : No
Forced                      : No

Text #5
ID                          : 8
Format                      : UTF-8
Codec ID                    : S_TEXT/UTF8
Codec ID/Info               : UTF-8 Plain Text
Duration                    : 1 h 56 min
Bit rate                    : 47 b/s
Count of elements           : 1492
Stream size                 : 40.6 KiB (0%)
Title                       : Eng SDH
Language                    : English
Default                     : No
Forced                      : No




Джерело: &


Авторський реліз (завантажувати можна без реєстрації)
 Трекер:    Зареєстрований   

Завантажити / скачати фільм українською



відео для новачків



 Зареєстрований:   2020-10-15 11:46
 Розмір:   6.44 GB 
 Оцінка фільму:   7.7/10 (Голосів: 25)
   
Інші релізи
   Стара гвардія / The Old Guard (2020) antik_2008  69 / 4   2.18 GB   2020-10-23 10:32 
   Стара гвардія / The Old Guard (2020) 1080p Ukr/Eng | Sub Ukr/Eng Electroz  96 / 2   14.29 GB   2020-10-14 23:17 
   Стара гвардія / The Old Guard (2020) AVC Ukr/Eng | Sub Ukr/Eng Electroz  233 / 0   4.16 GB   2020-10-14 21:57 
bot 
робот


З нами з: 30.09.07
Востаннє: 26.05.05
Повідомлень: 25969

2020-10-15 11:46  
Тему перенесено з Анонси релізів до форуму Фільми в HD


igor911

Estranded 
VIP


З нами з: 09.02.14
Востаннє: 27.10.20
Повідомлень: 1508

2020-10-15 12:13  
Хто озвучував?
Anonymous 







2020-10-15 12:36  
Estranded написано:
Хто озвучував?

"Частково Дніпрофільм". На озвучення проходив збір коштів https://toloka.to/t111639

Mr.Destiny 
Свій


З нами з: 19.03.14
Востаннє: 26.10.20
Повідомлень: 61

2020-10-15 16:40  
Повне лайно, додивився з 3 спроби, здається.
GlossaVK 
Свій


З нами з: 26.06.13
Востаннє: 26.10.20
Повідомлень: 76

2020-10-15 22:22  
Така собі футуристично-феміністична маячня...
Estranded 
VIP


З нами з: 09.02.14
Востаннє: 27.10.20
Повідомлень: 1508

2020-10-16 00:15  
Задумка наче й цікава, але якось сюжет тупо розкритий. Є собі так звана "гвардія", яка вбиває інші погані "гвардії, і на цьому все. Жодної прив'язки до персонажів, подання та розкриття передісторії і т.д. Звісно ж, необійшлося без лгбт-набору нетфлікс.
5/10 — прохідне одноразове кіно

подвох 
Свій


З нами з: 29.03.18
Востаннє: 25.10.20
Повідомлень: 52

2020-10-16 16:10  
шлачина з тупою пропагандою педоти
lazey 
Новенький


З нами з: 05.03.09
Востаннє: 27.10.20
Повідомлень: 11

2020-10-17 12:00  
подвох написано:
шлачина з тупою пропагандою педоти


Я, звичайно, не такий крутий знавець "педоти", як інші шановні відвідувачі Толоки, тому нічого сказати про це не можу.

А ось щодо самої стрічки, то фільм класний. Чудово розкритий сюжет без зайвих загогулін (на кшталт Тенету). Ну і сама тема безсмертя добре показана, не в усіх подібних фільмах це вдається.
Тільки їм треба було врятвати ту дівчину, що потопили декілька століть тому. Адже раптом вона ще жива?

INTER-FAN 
Свій


З нами з: 25.01.10
Востаннє: 26.10.20
Повідомлень: 99

2020-10-17 15:41  
Нормальне кіно. Раз глянути можна. рейтинг 6.7 - якраз правильний
І-р 
Свій


З нами з: 21.07.16
Востаннє: 27.10.20
Повідомлень: 112

2020-10-19 13:14  
Двоє "голубів" голублять одне одного. Огидно! Confused
Капонір 
Новенький


З нами з: 01.04.17
Востаннє: 26.10.20
Повідомлень: 5

2020-10-22 20:47  
Всі норми на оскар виконано, чорні/педроси/жінкомужики... Але все інше -гумно.
MAGnitos 
Частий відвідувач


З нами з: 30.10.16
Востаннє: 25.10.20
Повідомлень: 26

2020-10-25 21:12  
Мені сподобалось. Чекаємо продовження.
Ваш часовий пояс: GMT + 2 Години

Нова тема   Відповісти