Привиди маєтку Блай (Сезон 1) / The Haunting of Bly Manor (Season 1) (2020) 1080p Ukr/Eng | sub Eng/Multi

Нові коментарі

Нова тема   Відповісти
Автор Повідомлення
Anonymous 







2020-10-14 22:05  
Привиди маєтку Блай (Сезон 1) / The Haunting of Bly Manor (Season 1) (2020) 1080p Ukr/Eng | sub Eng/Multi

Привиди маєтку Блай (Сезон 1) / The Haunting of Bly Manor (Season 1) (2020) 1080p Ukr/Eng | sub Eng/Multi


Жанр: драма, жахи, містика
Країна: США



Кінокомпанія: Amblin Television, Intrepid Pictures, Paramount Television Studios | Netflix
Режисер: Кіран Фой, Лайам Гевін, Майк Фленеган
Актори: Генрі Томас, Амелі Беа Сміт, Бенджамін Еван Ейнсворт, Вікторія Педретті, Амелія Ів, Т'Ніа Міллер, Рахул Колі, Тахіра Шаріф, Олівер Джексон-Коен, Калікс Фрейзер, Ендрю Ніл МакКензі, Алекс Ессоу, Карла Гуджино, Робі Атал, Меттью Голнесс

Сюжет:
У 1987 році молода американка Дені Клейтон була найнята заможним лордом Генрі Вінгрейвом як гувернантка для 10-річного Майлза і 8-річної Флори, що живуть в заміському маєтку Блай в Англії. Прибувши в маєток, Дені раптово виявляє безліч дивних амулетів, розкиданих по будинку, в той час як Флора попереджає нову няню, щоб вона не виходила зі своєї кімнати вночі. Одного разу, ігноруючи пораду підопічної, героїня випадково натикається на талісман, що належав попередній гувернантці, яка нібито наклала на себе руки. З цього моменту в будинку починають відбуватися моторошні події, а Дені поступово переконується в існуванні зловісних примар..


Тривалість: 1 серія: ~ 55 хв. (цілком серій: 9)
Перелік серій
01 - The Great Good Place
02 - The Pupil
03 - The Two Faces, Part One
04 - The Way It Came
05 - The Altar of the Dead
06 - The Jolly Corner
07 - The Two Faces, Part Two
08 - The Romance of Certain Old Clothes
09 - The Beast in the Jungle
Якість:
Відео:
кодек:
розмір кадру: 1920 x 1080
бітрейт: 4459 кб/с

Аудіо # 1:
мова: українська
переклад: багатоголосий закадровий
кодек: 5.1
бітрейт: 384 кб/с

Аудіо # 2:
мова: англійська
переклад: оригінал
кодек: 5.1
бітрейт: 768 кб/с

Джерело озвучення:
DniproFilm

Субтитри:
мова: англійська [SDH], португальська (браз.), арабська, китайська (спрощ.), китайська (трад.), чеська, данська, німецька, грецька, іспанська (лат.), іспанська (європ.), фінська, французька, гебрейська, корейська, угорська, індонезійська, італійська, японська, малайська, нідерландська, норвезька, польська, португальська, румунська, шведська, тайська, турецька, в'єтнамська
тип: програмні (м'які)
формат: *.srt
Info
Код:
General
Unique ID                                : 211631951910098825799055604206648534000 (0x9F36D4D285147126CCAE659F2E09A3F0)
Complete name                            : The Haunting of Bly Manor S01E01 (2020) 1080p [Ukr_Eng] [Hurtom].
Format                                   :
Format version                           : Version 4
File size                                : 2.13 GiB
Duration                                 : 54 min 10 s
Overall bit rate mode                    : Variable
Overall bit rate                         : 5 617 kb/s
Movie name                               : Привиди маєтку Блай (Сезон 1, серія 1) (2020)
Encoded date                             : UTC 2020-10-14 18:20:12
Writing application                      : v50.0.0 ('Awakenings') 64-bit
Writing library                          : libebml v1.4.0 + v1.6.2
Cover                                    : Yes
Attachments                              : cover.jpg

Video
ID                                       : 1
Format                                   : AVC
Format/Info                              : Advanced Video Codec
Format profile                           : [email protected]
Format settings                          : CABAC / 4 Ref Frames
Format settings, CABAC                   : Yes
Format settings, Reference frames        : 4 frames
Codec ID                                 : V_MPEG4/ISO/AVC
Duration                                 : 54 min 10 s
Bit rate mode                            : Variable
Bit rate                                 : 4 459 kb/s
Maximum bit rate                         : 20.0 Mb/s
Width                                    : 1 920 pixels
Height                                   : 1 080 pixels
Display aspect ratio                     : 16:9
Frame rate mode                          : Constant
Frame rate                               : 24.000 FPS
Color space                              : YUV
Chroma subsampling                       : 4:2:0
Bit depth                                : 8 bits
Scan type                                : Progressive
Bits/(Pixel*Frame)                       : 0.090
Stream size                              : 1.69 GiB (79%)
Writing library                          : core 148 r2722 1b0121b
Encoding settings                        : cabac=1 / ref=4 / deblock=1:0:0 / analyse=0x3:0x111 / me=umh / subme=10 / psy=1 / psy_rd=1.00:0.00 / mixed_ref=1 / me_range=120 / chroma_me=1 / trellis=2 / 8x8dct=1 / cqm=0 / deadzone=21,11 / fast_pskip=1 / chroma_qp_offset=-2 / threads=8 / lookahead_threads=2 / sliced_threads=0 / nr=0 / decimate=1 / interlaced=0 / bluray_compat=0 / stitchable=1 / constrained_intra=0 / bframes=16 / b_pyramid=2 / b_adapt=2 / b_bias=0 / direct=3 / weightb=1 / open_gop=0 / weightp=2 / keyint=240 / keyint_min=121 / scenecut=0 / intra_refresh=0 / rc_lookahead=240 / rc=crf / mbtree=1 / crf=16.0 / qcomp=0.50 / qpmin=6 / qpmax=51 / qpstep=4 / vbv_maxrate=20000 / vbv_bufsize=25000 / crf_max=0.0 / nal_hrd=vbr / filler=0 / ip_ratio=1.40 / aq=1:0.80
Default                                  : Yes
Forced                                   : No

Audio #1
ID                                       : 2
Format                                   : AC-3
Format/Info                              : Audio Coding 3
Commercial name                          : Dolby Digital
Codec ID                                 : A_AC3
Duration                                 : 54 min 10 s
Bit rate mode                            : Constant
Bit rate                                 : 384 kb/s
Channel(s)                               : 6 channels
Channel layout                           : L R C LFE Ls Rs
Sampling rate                            : 48.0 kHz
Frame rate                               : 31.250 FPS (1536 SPF)
Compression mode                         : Lossy
Stream size                              : 149 MiB (7%)
Language                                 : Ukrainian
Service kind                             : Complete Main
Default                                  : Yes
Forced                                   : Yes

Audio #2
ID                                       : 3
Format                                   : E-AC-3 JOC
Format/Info                              : Enhanced AC-3 with Joint Object Coding
Commercial name                          : Dolby Digital Plus with Dolby Atmos
Codec ID                                 : A_EAC3
Duration                                 : 54 min 10 s
Bit rate mode                            : Constant
Bit rate                                 : 768 kb/s
Channel(s)                               : 6 channels
Channel layout                           : L R C LFE Ls Rs
Sampling rate                            : 48.0 kHz
Frame rate                               : 31.250 FPS (1536 SPF)
Compression mode                         : Lossy
Stream size                              : 298 MiB (14%)
Language                                 : English
Service kind                             : Complete Main
Default                                  : No
Forced                                   : No
Complexity index                         : 16
Number of dynamic objects                : 15
Bed channel count                        : 1 channel
Bed channel configuration                : LFE

Text #1
ID                                       : 4
Format                                   : UTF-8
Codec ID                                 : S_TEXT/UTF8
Codec ID/Info                            : UTF-8 Plain Text
Duration                                 : 51 min 22 s
Bit rate                                 : 69 b/s
Count of elements                        : 911
Stream size                              : 26.2 KiB (0%)
Title                                    : SDH
Language                                 : English
Default                                  : No
Forced                                   : No

Text #2
ID                                       : 5
Format                                   : UTF-8
Codec ID                                 : S_TEXT/UTF8
Codec ID/Info                            : UTF-8 Plain Text
Duration                                 : 52 min 31 s
Bit rate                                 : 54 b/s
Count of elements                        : 794
Stream size                              : 20.8 KiB (0%)
Title                                    : Brazilian
Language                                 : Portuguese
Default                                  : No
Forced                                   : No

Text #3
ID                                       : 6
Format                                   : UTF-8
Codec ID                                 : S_TEXT/UTF8
Codec ID/Info                            : UTF-8 Plain Text
Duration                                 : 52 min 31 s
Bit rate                                 : 96 b/s
Count of elements                        : 808
Stream size                              : 37.1 KiB (0%)
Language                                 : Arabic
Default                                  : No
Forced                                   : No

Text #4
ID                                       : 7
Format                                   : UTF-8
Codec ID                                 : S_TEXT/UTF8
Codec ID/Info                            : UTF-8 Plain Text
Duration                                 : 52 min 31 s
Bit rate                                 : 58 b/s
Count of elements                        : 822
Stream size                              : 22.4 KiB (0%)
Title                                    : Simplified
Language                                 : Chinese
Default                                  : No
Forced                                   : No

Text #5
ID                                       : 8
Format                                   : UTF-8
Codec ID                                 : S_TEXT/UTF8
Codec ID/Info                            : UTF-8 Plain Text
Duration                                 : 52 min 25 s
Bit rate                                 : 58 b/s
Count of elements                        : 835
Stream size                              : 22.5 KiB (0%)
Title                                    : Traditional
Language                                 : Chinese
Default                                  : No
Forced                                   : No

Text #6
ID                                       : 9
Format                                   : UTF-8
Codec ID                                 : S_TEXT/UTF8
Codec ID/Info                            : UTF-8 Plain Text
Duration                                 : 52 min 18 s
Bit rate                                 : 56 b/s
Count of elements                        : 758
Stream size                              : 21.5 KiB (0%)
Language                                 : Czech
Default                                  : No
Forced                                   : No

Text #7
ID                                       : 10
Format                                   : UTF-8
Codec ID                                 : S_TEXT/UTF8
Codec ID/Info                            : UTF-8 Plain Text
Duration                                 : 52 min 31 s
Bit rate                                 : 52 b/s
Count of elements                        : 700
Stream size                              : 20.1 KiB (0%)
Language                                 : Danish
Default                                  : No
Forced                                   : No

Text #8
ID                                       : 11
Format                                   : UTF-8
Codec ID                                 : S_TEXT/UTF8
Codec ID/Info                            : UTF-8 Plain Text
Duration                                 : 52 min 21 s
Bit rate                                 : 55 b/s
Count of elements                        : 763
Stream size                              : 21.1 KiB (0%)
Language                                 : German
Default                                  : No
Forced                                   : No

Text #9
ID                                       : 12
Format                                   : UTF-8
Codec ID                                 : S_TEXT/UTF8
Codec ID/Info                            : UTF-8 Plain Text
Duration                                 : 52 min 22 s
Bit rate                                 : 94 b/s
Count of elements                        : 757
Stream size                              : 36.3 KiB (0%)
Language                                 : Greek
Default                                  : No
Forced                                   : No

Text #10
ID                                       : 13
Format                                   : UTF-8
Codec ID                                 : S_TEXT/UTF8
Codec ID/Info                            : UTF-8 Plain Text
Duration                                 : 52 min 18 s
Bit rate                                 : 54 b/s
Count of elements                        : 742
Stream size                              : 20.8 KiB (0%)
Language                                 : Spanish
Default                                  : No
Forced                                   : No

Text #11
ID                                       : 14
Format                                   : UTF-8
Codec ID                                 : S_TEXT/UTF8
Codec ID/Info                            : UTF-8 Plain Text
Duration                                 : 52 min 18 s
Bit rate                                 : 52 b/s
Count of elements                        : 753
Stream size                              : 20.1 KiB (0%)
Title                                    : European
Language                                 : Spanish
Default                                  : No
Forced                                   : No

Text #12
ID                                       : 15
Format                                   : UTF-8
Codec ID                                 : S_TEXT/UTF8
Codec ID/Info                            : UTF-8 Plain Text
Duration                                 : 52 min 21 s
Bit rate                                 : 51 b/s
Count of elements                        : 553
Stream size                              : 19.9 KiB (0%)
Language                                 : Finnish
Default                                  : No
Forced                                   : No

Text #13
ID                                       : 16
Format                                   : UTF-8
Codec ID                                 : S_TEXT/UTF8
Codec ID/Info                            : UTF-8 Plain Text
Duration                                 : 52 min 31 s
Bit rate                                 : 54 b/s
Count of elements                        : 805
Stream size                              : 20.8 KiB (0%)
Language                                 : French
Default                                  : No
Forced                                   : No

Text #14
ID                                       : 17
Format                                   : UTF-8
Codec ID                                 : S_TEXT/UTF8
Codec ID/Info                            : UTF-8 Plain Text
Duration                                 : 52 min 35 s
Bit rate                                 : 91 b/s
Count of elements                        : 821
Stream size                              : 35.1 KiB (0%)
Language                                 : Hebrew
Default                                  : No
Forced                                   : No

Text #15
ID                                       : 18
Format                                   : UTF-8
Codec ID                                 : S_TEXT/UTF8
Codec ID/Info                            : UTF-8 Plain Text
Duration                                 : 52 min 31 s
Bit rate                                 : 69 b/s
Count of elements                        : 833
Stream size                              : 26.9 KiB (0%)
Language                                 : Korean
Default                                  : No
Forced                                   : No

Text #16
ID                                       : 19
Format                                   : UTF-8
Codec ID                                 : S_TEXT/UTF8
Codec ID/Info                            : UTF-8 Plain Text
Duration                                 : 52 min 31 s
Bit rate                                 : 55 b/s
Count of elements                        : 778
Stream size                              : 21.2 KiB (0%)
Language                                 : Hungarian
Default                                  : No
Forced                                   : No

Text #17
ID                                       : 20
Format                                   : UTF-8
Codec ID                                 : S_TEXT/UTF8
Codec ID/Info                            : UTF-8 Plain Text
Duration                                 : 52 min 31 s
Bit rate                                 : 54 b/s
Count of elements                        : 797
Stream size                              : 20.9 KiB (0%)
Language                                 : Indonesian
Default                                  : No
Forced                                   : No

Text #18
ID                                       : 21
Format                                   : UTF-8
Codec ID                                 : S_TEXT/UTF8
Codec ID/Info                            : UTF-8 Plain Text
Duration                                 : 52 min 31 s
Bit rate                                 : 53 b/s
Count of elements                        : 728
Stream size                              : 20.5 KiB (0%)
Language                                 : Italian
Default                                  : No
Forced                                   : No

Text #19
ID                                       : 22
Format                                   : UTF-8
Codec ID                                 : S_TEXT/UTF8
Codec ID/Info                            : UTF-8 Plain Text
Duration                                 : 52 min 31 s
Bit rate                                 : 57 b/s
Count of elements                        : 837
Stream size                              : 22.1 KiB (0%)
Language                                 : Japanese
Default                                  : No
Forced                                   : No

Text #20
ID                                       : 23
Format                                   : UTF-8
Codec ID                                 : S_TEXT/UTF8
Codec ID/Info                            : UTF-8 Plain Text
Duration                                 : 52 min 31 s
Bit rate                                 : 60 b/s
Count of elements                        : 821
Stream size                              : 23.3 KiB (0%)
Language                                 : Malay
Default                                  : No
Forced                                   : No

Text #21
ID                                       : 24
Format                                   : UTF-8
Codec ID                                 : S_TEXT/UTF8
Codec ID/Info                            : UTF-8 Plain Text
Duration                                 : 52 min 31 s
Bit rate                                 : 53 b/s
Count of elements                        : 686
Stream size                              : 20.6 KiB (0%)
Language                                 : Dutch
Default                                  : No
Forced                                   : No

Text #22
ID                                       : 25
Format                                   : UTF-8
Codec ID                                 : S_TEXT/UTF8
Codec ID/Info                            : UTF-8 Plain Text
Duration                                 : 52 min 31 s
Bit rate                                 : 52 b/s
Count of elements                        : 728
Stream size                              : 20.1 KiB (0%)
Language                                 : Norwegian Bokmal
Default                                  : No
Forced                                   : No

Text #23
ID                                       : 26
Format                                   : UTF-8
Codec ID                                 : S_TEXT/UTF8
Codec ID/Info                            : UTF-8 Plain Text
Duration                                 : 52 min 31 s
Bit rate                                 : 53 b/s
Count of elements                        : 793
Stream size                              : 20.7 KiB (0%)
Language                                 : Polish
Default                                  : No
Forced                                   : No

Text #24
ID                                       : 27
Format                                   : UTF-8
Codec ID                                 : S_TEXT/UTF8
Codec ID/Info                            : UTF-8 Plain Text
Duration                                 : 52 min 18 s
Bit rate                                 : 56 b/s
Count of elements                        : 731
Stream size                              : 21.7 KiB (0%)
Language                                 : Portuguese
Default                                  : No
Forced                                   : No

Text #25
ID                                       : 28
Format                                   : UTF-8
Codec ID                                 : S_TEXT/UTF8
Codec ID/Info                            : UTF-8 Plain Text
Duration                                 : 52 min 31 s
Bit rate                                 : 60 b/s
Count of elements                        : 690
Stream size                              : 23.3 KiB (0%)
Language                                 : Romanian
Default                                  : No
Forced                                   : No

Text #26
ID                                       : 29
Format                                   : UTF-8
Codec ID                                 : S_TEXT/UTF8
Codec ID/Info                            : UTF-8 Plain Text
Duration                                 : 50 min 16 s
Bit rate                                 : 54 b/s
Count of elements                        : 764
Stream size                              : 20.2 KiB (0%)
Language                                 : Swedish
Default                                  : No
Forced                                   : No

Text #27
ID                                       : 30
Format                                   : UTF-8
Codec ID                                 : S_TEXT/UTF8
Codec ID/Info                            : UTF-8 Plain Text
Duration                                 : 50 min 16 s
Bit rate                                 : 161 b/s
Count of elements                        : 821
Stream size                              : 59.4 KiB (0%)
Language                                 : Thai
Default                                  : No
Forced                                   : No

Text #28
ID                                       : 31
Format                                   : UTF-8
Codec ID                                 : S_TEXT/UTF8
Codec ID/Info                            : UTF-8 Plain Text
Duration                                 : 52 min 22 s
Bit rate                                 : 58 b/s
Count of elements                        : 656
Stream size                              : 22.3 KiB (0%)
Language                                 : Turkish
Default                                  : No
Forced                                   : No

Text #29
ID                                       : 32
Format                                   : UTF-8
Codec ID                                 : S_TEXT/UTF8
Codec ID/Info                            : UTF-8 Plain Text
Duration                                 : 52 min 28 s
Bit rate                                 : 80 b/s
Count of elements                        : 767
Stream size                              : 31.0 KiB (0%)
Language                                 : Vietnamese
Default                                  : No
Forced                                   : No

Скріншоти


Джерело:


Авторський реліз (завантажувати можна без реєстрації)
 Трекер:    Зареєстрований   

Завантажити / скачати серіал українською



відео для новачків



 Зареєстрований:   2020-10-14 22:05
 Розмір:   15.51 GB 
 Оцінка серіалу:   8.4/10 (Голосів: 9)
   
rakab 
Свій


З нами з: 02.08.09
Востаннє: 25.10.20
Повідомлень: 96

2020-10-17 17:56  
Я б не сказав, що це однозначно 1 сезон. Насправді, це другий сезон оцього серіалу: https://toloka.to/t97009 "The Haunting of Hill House"

Сезони, правда, непов'язані, так що кожен можна розглядати, як окремий завершений міні-серіал.

an-isa 
Частий відвідувач


З нами з: 18.02.13
Востаннє: 26.10.20
Повідомлень: 42

2020-10-26 23:55  
Не варто псувати враження від "The Haunting of Hill House". Той -дуже сильний серіал, справді талановита суміш драми (глибина) й жахів (моменти не просто лячні, але несподівано / незбагненно / трагічно), той був також цікавий зміною фокалізації (нова серія - нове бачення). А цей серіал - нудотне-багатослівне-попсове "мило". 5/10
Ваш часовий пояс: GMT + 2 Години

Нова тема   Відповісти