Мулан / Mulan (2020) 720p 2xUkr/Eng | Sub Ukr/Eng

Нові коментарі

Нова тема   Відповісти
Автор Повідомлення
Anonymous 







2020-10-13 15:17  
Мулан / Mulan (2020) 720p 2xUkr/Eng | Sub Ukr/Eng

Мулан / Mulan (2020) 720p 2xUkr/Eng | Sub Ukr/Eng


Жанр: драма, пригодницький, сімейний, фентезі, екшн
Країна: США, Канада, Гонконг



Кінокомпанія: Walt Disney Pictures
Режисер: Нікі Каро
Актори: Іфей Лю, Донні Єн, Ґун Лі, Джет Лі, Джейсон Скотт Лі, Йосон Ан, Ма Ці, Розалінд Чао, Рон Юань, Джан Ю

Сюжет:
Для Китайської імперії настали темні часи. Із півночі на країну наступає грізне військо нещадних загарбників, які жадають крові невинних людей. Імператор видав указ, що кожна сім'я повинна дати одного чоловіка для захисту країни. Хуа завжди був хоробрим воїном, але зараз на старості років, його долають хвороби. Але він єдиний чоловік у своїй родині, Бог нагородив його двома дочками. Мулан, старша з них, завжди відрізнялася від своїх одноліток. Рішуча, смілива та спритна дівчина не може відпустити батька на вірну смерть – вона сама піде до війська, прикинувшись хлопцем. Це буде складний шлях для дівчини, який зробить її одним із найбільших воїнів у історії Китаю.


Тривалість: 01:55:08
Якість:
Відео:
кодек:
розмір кадру: 1280 x 720
бітрейт: 4242 кб/с

Аудіо # 1:
мова: українська
переклад: професійний дубльований
кодек: 2.0
бітрейт: 192 кб/с

Аудіо # 2:
мова: українська
переклад: одноголосий закадровий | В одне рило
кодек: 2.0
бітрейт: 192 кб/с

Аудіо # 3:
мова: англійська
переклад: оригінал
кодек: 5.1
бітрейт: 448 кб/с

Субтитри # 1:
мова: українська
тип: програмні (м'які)
формат: *.srt
переклад: машинний редагований переклад killer2015

Субтитри # 2:
мова: англійська (SDH)
тип: програмні (м'які)
формат: *.srt
Info
Код:
Complete name               : Mulan (2020) [2xUkr,Eng sub.Ukr,Eng] 720p [Hurtom].
Format                      :
Format version              : Version 4
File size                   : 4.24 GiB
Duration                    : 1 h 55 min
Overall bit rate mode       : Variable
Overall bit rate            : 5 268 kb/s
Movie name                  : Мулан / Mulan (2020) [2xUkr,Eng sub.Ukr,Eng] 720p [Hurtom]
Encoded date                : UTC 2020-10-13 13:32:21
Writing application         : v51.0.0 ('I Wish') 64-bit
Writing library             : libebml v1.4.0 + v1.6.2
Cover                       : Yes
Attachments                 : cover.jpg

Video
ID                          : 1
Format                      : AVC
Format/Info                 : Advanced Video Codec
Format profile              : [email protected]
Format settings             : CABAC / 4 Ref Frames
Format settings, CABAC      : Yes
Format settings, Reference  : 4 frames
Codec ID                    : V_MPEG4/ISO/AVC
Duration                    : 1 h 55 min
Bit rate mode               : Variable
Bit rate                    : 4 242 kb/s
Maximum bit rate            : 6 375 kb/s
Width                       : 1 280 pixels
Height                      : 720 pixels
Display aspect ratio        : 16:9
Frame rate mode             : Constant
Frame rate                  : 23.976 (24000/1001) FPS
Color space                 : YUV
Chroma subsampling          : 4:2:0
Bit depth                   : 8 bits
Scan type                   : Progressive
Bits/(Pixel*Frame)          : 0.192
Stream size                 : 3.41 GiB (81%)
Title                       : Мулан / Mulan (2020) 720p
Language                    : English
Default                     : Yes
Forced                      : No
Color range                 : Limited
Color primaries             : BT.709
Transfer characteristics    : BT.709
Matrix coefficients         : BT.709

Audio #1
ID                          : 2
Format                      : AC-3
Format/Info                 : Audio Coding 3
Commercial name             : Dolby Digital
Codec ID                    : A_AC3
Duration                    : 1 h 55 min
Bit rate mode               : Constant
Bit rate                    : 192 kb/s
Channel(s)                  : 2 channels
Channel layout              : L R
Sampling rate               : 48.0 kHz
Frame rate                  : 31.250 FPS (1536 SPF)
Compression mode            : Lossy
Stream size                 : 158 MiB (4%)
Title                       : Dub [official], 2.0 192 Kbps
Language                    : Ukrainian
Service kind                : Complete Main
Default                     : Yes
Forced                      : Yes

Audio #2
ID                          : 3
Format                      : AC-3
Format/Info                 : Audio Coding 3
Commercial name             : Dolby Digital
Codec ID                    : A_AC3
Duration                    : 1 h 55 min
Bit rate mode               : Constant
Bit rate                    : 192 kb/s
Channel(s)                  : 2 channels
Channel layout              : L R
Sampling rate               : 48.0 kHz
Frame rate                  : 31.250 FPS (1536 SPF)
Compression mode            : Lossy
Stream size                 : 158 MiB (4%)
Title                       : AVO [В одне рило]
Language                    : Ukrainian
Service kind                : Complete Main
Default                     : No
Forced                      : No

Audio #3
ID                          : 4
Format                      : AC-3
Format/Info                 : Audio Coding 3
Commercial name             : Dolby Digital
Codec ID                    : A_AC3
Duration                    : 1 h 55 min
Bit rate mode               : Constant
Bit rate                    : 640 kb/s
Channel(s)                  : 6 channels
Channel layout              : L R C LFE Ls Rs
Sampling rate               : 48.0 kHz
Frame rate                  : 31.250 FPS (1536 SPF)
Compression mode            : Lossy
Stream size                 : 527 MiB (12%)
Title                       : Original, 5.1 448 Kbps
Language                    : English
Service kind                : Complete Main
Default                     : No
Forced                      : No

Text #1
ID                          : 5
Format                      : UTF-8
Codec ID                    : S_TEXT/UTF8
Codec ID/Info               : UTF-8 Plain Text
Duration                    : 1 h 43 min
Bit rate                    : 50 b/s
Count of elements           : 848
Stream size                 : 38.2 KiB (0%)
Title                       : Ukr Full [машинний редагований переклад killer2015]
Language                    : Ukrainian
Default                     : No
Forced                      : No

Text #2
ID                          : 6
Format                      : UTF-8
Codec ID                    : S_TEXT/UTF8
Codec ID/Info               : UTF-8 Plain Text
Duration                    : 1 h 50 min
Bit rate                    : 35 b/s
Count of elements           : 1150
Stream size                 : 28.5 KiB (0%)
Title                       : Eng SDH
Language                    : English
Default                     : No
Forced                      : No


Джерело: & eneyida.tv


Авторський реліз (завантажувати можна без реєстрації)
 Трекер:    Зареєстрований   

Завантажити / скачати фільм українською



відео для новачків



 Зареєстрований:   2020-10-13 15:44
 Розмір:   4.24 GB 
 Оцінка фільму:   9.2/10 (Голосів: 13)
   
Інші релізи
   Мулан / Mulan (2020) 1080p 2xUkr/Eng | Sub Ukr/Eng Neo_Men  37 / 1   15.64 GB   2020-10-13 16:55 
   Мулан / Mulan (2020) UHD 2160p 4K HDR H.265 2xUkr/Eng | Sub Ukr/Eng Neo_Men  25 / 0   13.74 GB   2020-10-13 16:26 
   Мулан / Mulan (2020) AVC 2xUkr/Eng | Sub Ukr/Eng eneyida.tv  82 / 0   2.22 GB   2020-10-13 15:17 
   Мулан / Mulan (2020) Ukr/Eng | Sub Ukr/Eng Done56  78 / 0   1.61 GB   2020-09-08 15:51 
   Мулан / Mulan (2020) Eng | sub Ukr killer2015  12 / 0   1.46 GB   2020-09-06 13:37 
Ваш часовий пояс: GMT + 2 Години

Нова тема   Відповісти