Кіт у чоботях: Троє чортенят / Puss in Boots: The Three Diablos (2011) Remux 1080p 3xUkr/Eng | Sub Ukr/Eng

Нові коментарі

Нова тема   Відповісти
Останній раз роздавалося yasinskiyv (2020-12-01)
Автор Повідомлення
Anonymous 







2020-10-13 14:05  
Кіт у чоботях: Троє чортенят / Puss in Boots: The Three Diablos (2011) Remux 1080p 3xUkr/Eng | Sub Ukr/Eng

Кіт у чоботях: Троє чортенят / Puss in Boots: The Three Diablos (2011) Remux 1080p 3xUkr/Eng | Sub Ukr/Eng


Жанр: короткометражний анімаційний фільм
Країна: США
Кінокомпанія: DreamWorks Animation
Режисер: Раман Гуї
Актори: Антоніо Бандерас, Жілль Маріні, Шарлотта Ньюхаус, Кріс Міллер, Волт Дорн та інші

Сюжет:
Кіт у чоботях вирушає на пошук рубіна, вкраденого з корони принцеси горезвісним французьким злодієм Шепотом. Його супроводжують троє маленьких кошенят, три чортенятка. Кіт повинен приручити їх, перш ніж поставити під загрозу місію.

Тривалість: 00:13:05
Якість: Remux

Відео:
кодек:
розмір кадру: 1920 x 1080
бітрейт: 24 789 кб/с

Аудіо # 1:
мова: українська
переклад: професійний дубльований
кодек: AC-3 2.0
бітрейт: 192 кб/с

Аудіо # 2:
мова: українська
переклад: багатоголосий закадровий | M&M
кодек: AC-3 5.1
бітрейт: 448 кб/с

Аудіо # 3:
мова: українська
переклад: одноголосий закадровий | UAMax (Ray)
кодек: AC-3 5.1
бітрейт: 448 кб/с

Аудіо # 4:
мова: англійська
переклад: оригінал
кодек: -HD MA 7.1
бітрейт: 5205 кб/с

Субтитри # 1: (Full)
мова: українська
тип: програмні (м'які)
формат: *.srt

Субтитри # 2: (Full)
мова: англійська
тип: програмні (м'які)
формат: *.srt


Info
Код:
General
Unique ID                                : 220268240367668379395579128060732459606 (0xA5B61EB7CE5977C84BE5443FB5974A56)
Complete name                            : Puss in Boots - The Three Diablos (2012) Remux 1080p [3xUKR_ENG] [Hurtom].
Format                                   :
Format version                           : Version 4
File size                                : 2.84 GiB
Duration                                 : 13 min 5 s
Overall bit rate mode                    : Variable
Overall bit rate                         : 31.1 Mb/s
Movie name                               : Кіт у чоботях: Троє чортенят / Puss in Boots: The Three Diablos (2012)
Encoded date                             : UTC 2020-10-12 21:59:49
Writing application                      : v20.0.0 ('I Am The Sun') 64-bit
Writing library                          : libebml v1.3.5 + v1.4.8
Cover                                    : Yes
Attachments                              : Cover.jpg

Video
ID                                       : 1
Format                                   : AVC
Format/Info                              : Advanced Video Codec
Format profile                           : [email protected]
Format settings                          : CABAC / 4 Ref Frames
Format settings, CABAC                   : Yes
Format settings, Reference frames        : 4 frames
Codec ID                                 : V_MPEG4/ISO/AVC
Duration                                 : 13 min 5 s
Bit rate mode                            : Variable
Bit rate                                 : 24.8 Mb/s
Maximum bit rate                         : 35.0 Mb/s
Width                                    : 1 920 pixels
Height                                   : 1 080 pixels
Display aspect ratio                     : 16:9
Frame rate mode                          : Constant
Frame rate                               : 23.976 (24000/1001) FPS
Color space                              : YUV
Chroma subsampling                       : 4:2:0
Bit depth                                : 8 bits
Scan type                                : Progressive
Bits/(Pixel*Frame)                       : 0.499
Stream size                              : 2.27 GiB (80%)
Title                                    : Кіт у чоботях: Троє чортенят / Puss in Boots: The Three Diablos (2012)
Language                                 : English
Default                                  : Yes
Forced                                   : No

Audio #1
ID                                       : 2
Format                                   : AC-3
Format/Info                              : Audio Coding 3
Commercial name                          : Dolby Digital
Codec ID                                 : A_AC3
Duration                                 : 13 min 5 s
Bit rate mode                            : Constant
Bit rate                                 : 192 kb/s
Channel(s)                               : 2 channels
Channel layout                           : L R
Sampling rate                            : 48.0 kHz
Frame rate                               : 31.250 FPS (1536 SPF)
Compression mode                         : Lossy
Stream size                              : 18.0 MiB (1%)
Title                                    : / 2.0 Ch / 192 kbps / DUB / TET
Language                                 : Ukrainian
Service kind                             : Complete Main
Default                                  : Yes
Forced                                   : Yes

Audio #2
ID                                       : 3
Format                                   : AC-3
Format/Info                              : Audio Coding 3
Commercial name                          : Dolby Digital
Codec ID                                 : A_AC3
Duration                                 : 13 min 5 s
Bit rate mode                            : Constant
Bit rate                                 : 448 kb/s
Channel(s)                               : 6 channels
Channel layout                           : L R C LFE Ls Rs
Sampling rate                            : 48.0 kHz
Frame rate                               : 31.250 FPS (1536 SPF)
Compression mode                         : Lossy
Stream size                              : 41.9 MiB (1%)
Title                                    : / 5.1 Ch / 448 kbps / MVO / M&M
Language                                 : Ukrainian
Service kind                             : Complete Main
Default                                  : No
Forced                                   : No

Audio #3
ID                                       : 4
Format                                   : AC-3
Format/Info                              : Audio Coding 3
Commercial name                          : Dolby Digital
Codec ID                                 : A_AC3
Duration                                 : 13 min 5 s
Bit rate mode                            : Constant
Bit rate                                 : 448 kb/s
Channel(s)                               : 6 channels
Channel layout                           : L R C LFE Ls Rs
Sampling rate                            : 48.0 kHz
Frame rate                               : 31.250 FPS (1536 SPF)
Compression mode                         : Lossy
Stream size                              : 41.9 MiB (1%)
Title                                    : / 5.1 Ch / 448 kbps / VO / UAMax (Ray)
Language                                 : Ukrainian
Service kind                             : Complete Main
Default                                  : No
Forced                                   : No

Audio #4
ID                                       : 5
Format                                   : XLL
Format/Info                              : Digital Theater Systems
Commercial name                          : -HD Master Audio
Codec ID                                 : A_DTS
Duration                                 : 13 min 5 s
Bit rate mode                            : Variable
Bit rate                                 : 5 201 kb/s
Channel(s)                               : 8 channels
Channel layout                           : C L R LFE Lb Rb Lss Rss
Sampling rate                            : 48.0 kHz
Frame rate                               : 93.750 FPS (512 SPF)
Bit depth                                : 24 bits
Compression mode                         : Lossless
Stream size                              : 487 MiB (17%)
Title                                    : -HD MA / 7.1 Ch / 5200 kbps / Original
Language                                 : English
Default                                  : No
Forced                                   : No

Text #1
ID                                       : 6
Format                                   : UTF-8
Codec ID                                 : S_TEXT/UTF8
Codec ID/Info                            : UTF-8 Plain Text
Duration                                 : 11 min 26 s
Bit rate                                 : 71 b/s
Count of elements                        : 130
Stream size                              : 5.97 KiB (0%)
Title                                    : Full
Language                                 : Ukrainian
Default                                  : No
Forced                                   : No

Text #2
ID                                       : 7
Format                                   : UTF-8
Codec ID                                 : S_TEXT/UTF8
Codec ID/Info                            : UTF-8 Plain Text
Duration                                 : 11 min 26 s
Bit rate                                 : 46 b/s
Count of elements                        : 128
Stream size                              : 3.91 KiB (0%)
Title                                    : Full
Language                                 : English
Default                                  : No
Forced                                   : No

Menu
00:00:00.000                             : en:Chapter 01
00:05:06.723                             : en:Chapter 02
Світлини




Джерело: &
Особиста оцінка: 0 - не дивився


Золотий реліз (завантажене не впливає на рейтинг)
 Трекер:    Зареєстрований   

Завантажити / скачати фільм українською



відео для новачків



 Зареєстрований:   2020-10-13 14:05
 Розмір:   2.84 GB 
 Оцінка фільму:   10/10 (Голосів: 2)
   
Ваш часовий пояс: GMT + 2 Години

Нова тема   Відповісти