Сага (Сезон 1) (2020) AVC

Нові коментарі

Нова тема   Відповісти
Автор Повідомлення
sergiyko.5 
Забанено
Забанено


З нами з: 25.02.16
Востаннє: 29.10.20
Повідомлень: 3650

2020-10-13 14:01  
Сага (Сезон 1) (2020) AVC


Сага (Сезон 1) (2020) AVC

Жанр: історія, драма
Країна: Україна
Кінокомпанія: Три-Я-Да Продакшн
Режисер: Дмитро Лактіонов
Актори: Ада Роговцева, Наталка Денисенко, Дар’я Плахтій, Олександра Люта, Лілія Цвелікова, Ігор Пазич, Григорій Бакланов, Яков Кучеревський, Микола Боклан, Аліна Коваленко, Юрій Дяк.

Сюжет:
У серіалі глядач стане свідком найвизначніших подій української історії крізь призму життя звичайної родини Козак. Сто років історії звичайної української сім'ї – сто років поневірянь, переслідувань, бід і боротьби за свободу. Шість поколінь родини Козаков стануть свідками страшних подій, через які пройде країна: від світових воєн і радянських репресій до Чорнобиля і революцій. Але через всі роки, переживаючи зради, образи і біль – Козаки пронесуть любов до своєї сім'ї, дітей і рідної України.


Тривалість: 1 серія 00:47:37 (цілком серій: 12 з 12)
Якість:

Відео: кодек: розмір кадру: 1024 х 576 бітрейт: 1600 кб/с
Аудіо: мова: українська озвучення: оригінал кодек: 2.0 бітрейт: 192 кб/с
Перелік серій
01-12
Про файл:
General
Unique ID : 122371770271928866128927631981922985290 (0x5C0FF21785FC80618ACBC321F00FA54A)
Complete name : C:\Users\Sergij\Videos\Сага S01 \Сага.S01E01..
Format :
Format version : Version 4
File size : 599 MiB
Duration : 47 min 20 s
Overall bit rate : 1 768 kb/s
Movie name : Сага S01 by sergiyko
Writing application : Lavf58.42.101
Writing library : Lavf58.42.101
ErrorDetectionType : Per level 1

Video
ID : 1
Format : AVC
Format/Info : Advanced Video Codec
Format profile : [email protected]
Format settings : CABAC / 7 Ref Frames
Format settings, CABAC : Yes
Format settings, Reference : 7 frames
Codec ID : V_MPEG4/ISO/AVC
Duration : 47 min 20 s
Bit rate : 5 949 kb/s
Width : 1 024 pixels
Height : 576 pixels
Display aspect ratio : 16:9
Frame rate mode : Constant
Frame rate : 25.000 FPS
Color space : YUV
Chroma subsampling : 4:2:0
Bit depth : 8 bits
Scan type : Progressive
Bits/(Pixel*Frame) : 0.403
Stream size : 1.97 GiB
Writing library : core 159
Encoding settings : cabac=1 / ref=7 / deblock=1:0:0 / analyse=0x3:0x133 / me=umh / subme=10 / psy=1 / psy_rd=1.00:0.00 / mixed_ref=1 / me_range=24 / chroma_me=1 / trellis=2 / 8x8dct=1 / cqm=0 / deadzone=21,11 / fast_pskip=1 / chroma_qp_offset=-2 / threads=18 / lookahead_threads=3 / sliced_threads=0 / nr=0 / decimate=1 / interlaced=0 / bluray_compat=0 / constrained_intra=0 / bframes=8 / b_pyramid=2 / b_adapt=2 / b_bias=0 / direct=3 / weightb=1 / open_gop=0 / weightp=2 / keyint=250 / keyint_min=25 / scenecut=40 / intra_refresh=0 / rc_lookahead=60 / rc=crf / mbtree=1 / crf=20.0 / qcomp=0.60 / qpmin=0 / qpmax=69 / qpstep=4 / ip_ratio=1.40 / aq=1:1.00
Language : Ukrainian
Default : Yes
Forced : No

Audio
ID : 2
Format : LC
Format/Info : Advanced Audio Codec Low Complexity
Codec ID : A_AAC-2
Duration : 47 min 20 s
Bit rate : 192 kb/s
Channel(s) : 2 channels
Channel layout : L R
Sampling rate : 48.0 kHz
Frame rate : 46.875 FPS (1024 SPF)
Compression mode : Lossy
Delay relative to video : -80 ms
Stream size : 64.8 MiB (11%)
Language : Ukrainian
Default : Yes
Forced : No
Скріншоти:


Запис: sergiyko


Золотий реліз (завантажене не впливає на рейтинг)
 Трекер:    Зареєстрований   

Завантажити / скачати український серіал



відео для новачків



 Зареєстрований:   2020-10-13 14:01
 Розмір:   6.01 GB 
 Оцінка серіалу:   10/10 (Голосів: 16)
   
alexjvsc 
Новенький


З нами з: 02.05.12
Востаннє: 09.11.20
Повідомлень: 6

2020-10-30 18:05  
Скажіть, будь-ласка, варіант у форматі Аві плануєте заливати на трекер?
antik_2008 
Релізер і модератор відео


З нами з: 20.10.08
Востаннє: 27.11.20
Повідомлень: 4361

2020-10-30 19:57  
alexjvsc написано:
Скажіть, будь-ласка, варіант у форматі Аві плануєте заливати на трекер?

Гадаю ні

Kurtz 
Новенький


З нами з: 08.03.15
Востаннє: 06.11.20
Повідомлень: 1

2020-11-06 13:25  
Дякую!!
Курка Аалямб 
Свій


З нами з: 17.03.10
Востаннє: 25.11.20
Повідомлень: 94

2020-11-24 20:20  
Неймовірно хороша річ
Ваш часовий пояс: GMT + 2 Години

Нова тема   Відповісти