Ретчед (Сезон 1) / Ratched (Season 1) (2020) 1080p Ukr/Eng | sub Eng/Multi

Нові коментарі

Нова тема   Відповісти
Автор Повідомлення
Anonymous 







2020-10-13 00:37  
Ретчед (Сезон 1) / Ratched (Season 1) (2020) 1080p Ukr/Eng | sub Eng/Multi

Ретчед (Сезон 1) / Ratched (Season 1) (2020) 1080p Ukr/Eng | sub Eng/Multi


Жанр: кримінальний, драма, містика
Країна: США



Кінокомпанія: Fox 21 Television Studios, Furthur Films, Lighthouse Management & Media / Netflix
Режисер: Раян Мерфі / Ryan Murphy
Актори: Сара Полсон, Альфред Рубін Томпсон, Джуді Девіс, Гаррієт Сенсом Гарріс, Синтія Ніксон, Гантер Перріш, Аманда Пламмер, Корі Столл, Шенон Стоун, Деніел Гаґен, Розанна Аркетт, Джон Джон Бріонес, Вінсент Д'Онофріо, Еліс Енґлерт, Софі Оконедо та ін.

Сюжет:
Драматичний телесеріал за мотивами роману Кена Кізі «Над зозулиним гніздом», який розповідає історію Мілдред Ретчед, яка зі звичайної медсестри перетворилась на монстра-соціопата..


Тривалість: 1 серія: ~ 1 год. (цілком серій: 8)
Перелік серій
01 - Pilot
02 - Ice Pick
03 - Angel of Mercy
04 - Angel of Mercy: Part Two
05 - The Dance
06 - Got No Strings
07 - The Bucket List
08 - Mildred and Edmund
Якість:
Відео:
кодек:
розмір кадру: 1920 x 1080
бітрейт: 4870 кб/с

Аудіо # 1:
мова: українська
переклад: багатоголосий закадровий
кодек: 5.1
бітрейт: 384 кб/с

Аудіо # 2:
мова: англійська
переклад: оригінал
кодек: 5.1
бітрейт: 768 кб/с

Джерело озвучення:
DniproFilm

Субтитри:
мова: англійська, англійська [SDH], арабська, чеська, данська, німецька, грецька, іспанська (лат.), іспанська (європ.), фінська, французька, гебрейська, хорватська, угорська, індонезійська, італійська, японська, корейська, нідерландська, норвезька, польська, португальська, португальська (браз.), румунська, шведська, тайська, турецька, в'єтнамська, китайська (спрощ.), китайська (трад.)
тип: програмні (м'які)
формат: *.srt
Info
Код:
General
Unique ID                                : 21932516512237482028070456027420951759 (0x10800C8D461DFE96838EB444BBE604CF)
Complete name                            : Ratched S01E01 (2020) 1080p [Ukr_Eng].
Format                                   :
Format version                           : Version 4
File size                                : 2.32 GiB
Duration                                 : 56 min 55 s
Overall bit rate mode                    : Variable
Overall bit rate                         : 5 842 kb/s
Movie name                               : Ретчед (Сезон 1, серія 1) (2020)
Encoded date                             : UTC 2020-10-12 19:01:08
Writing application                      : v50.0.0 ('Awakenings') 64-bit
Writing library                          : libebml v1.4.0 + v1.6.2
Cover                                    : Yes
Attachments                              : cover.jpg

Video
ID                                       : 1
Format                                   : AVC
Format/Info                              : Advanced Video Codec
Format profile                           : [email protected]
Format settings                          : CABAC / 3 Ref Frames
Format settings, CABAC                   : Yes
Format settings, Reference frames        : 3 frames
Codec ID                                 : V_MPEG4/ISO/AVC
Duration                                 : 56 min 55 s
Bit rate mode                            : Variable
Bit rate                                 : 4 870 kb/s
Maximum bit rate                         : 7 305 kb/s
Width                                    : 1 920 pixels
Height                                   : 1 080 pixels
Display aspect ratio                     : 16:9
Frame rate mode                          : Constant
Frame rate                               : 23.976 (24000/1001) FPS
Color space                              : YUV
Chroma subsampling                       : 4:2:0
Bit depth                                : 8 bits
Scan type                                : Progressive
Bits/(Pixel*Frame)                       : 0.098
Stream size                              : 1.86 GiB (80%)
Writing library                          : core 148 r2722 1b0121b
Encoding settings                        : cabac=1 / ref=3 / deblock=1:0:0 / analyse=0x1:0x111 / me=umh / subme=10 / psy=1 / psy_rd=1.00:0.00 / mixed_ref=1 / me_range=24 / chroma_me=1 / trellis=2 / 8x8dct=0 / cqm=0 / deadzone=21,11 / fast_pskip=1 / chroma_qp_offset=-2 / threads=8 / lookahead_threads=1 / sliced_threads=0 / nr=0 / decimate=1 / interlaced=0 / bluray_compat=0 / stitchable=1 / constrained_intra=0 / bframes=2 / b_pyramid=0 / b_adapt=2 / b_bias=0 / direct=3 / weightb=1 / open_gop=0 / weightp=2 / keyint=250 / keyint_min=23 / scenecut=0 / intra_refresh=0 / rc_lookahead=48 / rc=2pass / mbtree=1 / bitrate=4870 / ratetol=1.0 / qcomp=0.50 / qpmin=6 / qpmax=51 / qpstep=4 / cplxblur=20.0 / qblur=0.5 / vbv_maxrate=7305 / vbv_bufsize=9740 / nal_hrd=vbr / filler=0 / ip_ratio=1.40 / aq=1:1.00
Default                                  : Yes
Forced                                   : No

Audio #1
ID                                       : 2
Format                                   : AC-3
Format/Info                              : Audio Coding 3
Commercial name                          : Dolby Digital
Codec ID                                 : A_AC3
Duration                                 : 56 min 55 s
Bit rate mode                            : Constant
Bit rate                                 : 384 kb/s
Channel(s)                               : 6 channels
Channel layout                           : L R C LFE Ls Rs
Sampling rate                            : 48.0 kHz
Frame rate                               : 31.250 FPS (1536 SPF)
Compression mode                         : Lossy
Stream size                              : 156 MiB (7%)
Language                                 : Ukrainian
Service kind                             : Complete Main
Default                                  : Yes
Forced                                   : Yes

Audio #2
ID                                       : 3
Format                                   : E-AC-3 JOC
Format/Info                              : Enhanced AC-3 with Joint Object Coding
Commercial name                          : Dolby Digital Plus with Dolby Atmos
Codec ID                                 : A_EAC3
Duration                                 : 56 min 55 s
Bit rate mode                            : Constant
Bit rate                                 : 768 kb/s
Channel(s)                               : 6 channels
Channel layout                           : L R C LFE Ls Rs
Sampling rate                            : 48.0 kHz
Frame rate                               : 31.250 FPS (1536 SPF)
Compression mode                         : Lossy
Stream size                              : 313 MiB (13%)
Title                                    : English
Language                                 : English
Service kind                             : Complete Main
Default                                  : No
Forced                                   : No
Complexity index                         : 16
Number of dynamic objects                : 15
Bed channel count                        : 1 channel
Bed channel configuration                : LFE

Text #1
ID                                       : 4
Format                                   : UTF-8
Codec ID                                 : S_TEXT/UTF8
Codec ID/Info                            : UTF-8 Plain Text
Duration                                 : 53 min 46 s
Bit rate                                 : 52 b/s
Count of elements                        : 611
Stream size                              : 20.7 KiB (0%)
Language                                 : English
Default                                  : No
Forced                                   : No

Text #2
ID                                       : 5
Format                                   : UTF-8
Codec ID                                 : S_TEXT/UTF8
Codec ID/Info                            : UTF-8 Plain Text
Duration                                 : 54 min 14 s
Bit rate                                 : 57 b/s
Count of elements                        : 693
Stream size                              : 22.8 KiB (0%)
Title                                    : SDH
Language                                 : English
Default                                  : No
Forced                                   : No

Text #3
ID                                       : 6
Format                                   : UTF-8
Codec ID                                 : S_TEXT/UTF8
Codec ID/Info                            : UTF-8 Plain Text
Duration                                 : 55 min 30 s
Bit rate                                 : 81 b/s
Count of elements                        : 619
Stream size                              : 33.0 KiB (0%)
Language                                 : Arabic
Default                                  : No
Forced                                   : No

Text #4
ID                                       : 7
Format                                   : UTF-8
Codec ID                                 : S_TEXT/UTF8
Codec ID/Info                            : UTF-8 Plain Text
Duration                                 : 55 min 30 s
Bit rate                                 : 45 b/s
Count of elements                        : 589
Stream size                              : 18.3 KiB (0%)
Language                                 : Czech
Default                                  : No
Forced                                   : No

Text #5
ID                                       : 8
Format                                   : UTF-8
Codec ID                                 : S_TEXT/UTF8
Codec ID/Info                            : UTF-8 Plain Text
Duration                                 : 55 min 30 s
Bit rate                                 : 44 b/s
Count of elements                        : 548
Stream size                              : 17.9 KiB (0%)
Language                                 : Danish
Default                                  : No
Forced                                   : No

Text #6
ID                                       : 9
Format                                   : UTF-8
Codec ID                                 : S_TEXT/UTF8
Codec ID/Info                            : UTF-8 Plain Text
Duration                                 : 55 min 32 s
Bit rate                                 : 48 b/s
Count of elements                        : 568
Stream size                              : 19.8 KiB (0%)
Language                                 : German
Default                                  : No
Forced                                   : No

Text #7
ID                                       : 10
Format                                   : UTF-8
Codec ID                                 : S_TEXT/UTF8
Codec ID/Info                            : UTF-8 Plain Text
Duration                                 : 55 min 32 s
Bit rate                                 : 77 b/s
Count of elements                        : 586
Stream size                              : 31.5 KiB (0%)
Language                                 : Greek
Default                                  : No
Forced                                   : No

Text #8
ID                                       : 11
Format                                   : UTF-8
Codec ID                                 : S_TEXT/UTF8
Codec ID/Info                            : UTF-8 Plain Text
Duration                                 : 55 min 30 s
Bit rate                                 : 46 b/s
Count of elements                        : 604
Stream size                              : 18.8 KiB (0%)
Language                                 : Spanish
Default                                  : No
Forced                                   : No

Text #9
ID                                       : 12
Format                                   : UTF-8
Codec ID                                 : S_TEXT/UTF8
Codec ID/Info                            : UTF-8 Plain Text
Duration                                 : 55 min 32 s
Bit rate                                 : 44 b/s
Count of elements                        : 597
Stream size                              : 18.2 KiB (0%)
Title                                    : European
Language                                 : Spanish
Default                                  : No
Forced                                   : No

Text #10
ID                                       : 13
Format                                   : UTF-8
Codec ID                                 : S_TEXT/UTF8
Codec ID/Info                            : UTF-8 Plain Text
Duration                                 : 55 min 30 s
Bit rate                                 : 45 b/s
Count of elements                        : 483
Stream size                              : 18.4 KiB (0%)
Language                                 : Finnish
Default                                  : No
Forced                                   : No

Text #11
ID                                       : 14
Format                                   : UTF-8
Codec ID                                 : S_TEXT/UTF8
Codec ID/Info                            : UTF-8 Plain Text
Duration                                 : 55 min 30 s
Bit rate                                 : 45 b/s
Count of elements                        : 585
Stream size                              : 18.5 KiB (0%)
Language                                 : French
Default                                  : No
Forced                                   : No

Text #12
ID                                       : 15
Format                                   : UTF-8
Codec ID                                 : S_TEXT/UTF8
Codec ID/Info                            : UTF-8 Plain Text
Duration                                 : 54 min 21 s
Bit rate                                 : 74 b/s
Count of elements                        : 622
Stream size                              : 29.8 KiB (0%)
Language                                 : Hebrew
Default                                  : No
Forced                                   : No

Text #13
ID                                       : 16
Format                                   : UTF-8
Codec ID                                 : S_TEXT/UTF8
Codec ID/Info                            : UTF-8 Plain Text
Duration                                 : 55 min 32 s
Bit rate                                 : 42 b/s
Count of elements                        : 602
Stream size                              : 17.2 KiB (0%)
Language                                 : Croatian
Default                                  : No
Forced                                   : No

Text #14
ID                                       : 17
Format                                   : UTF-8
Codec ID                                 : S_TEXT/UTF8
Codec ID/Info                            : UTF-8 Plain Text
Duration                                 : 55 min 30 s
Bit rate                                 : 48 b/s
Count of elements                        : 607
Stream size                              : 19.8 KiB (0%)
Language                                 : Hungarian
Default                                  : No
Forced                                   : No

Text #15
ID                                       : 18
Format                                   : UTF-8
Codec ID                                 : S_TEXT/UTF8
Codec ID/Info                            : UTF-8 Plain Text
Duration                                 : 55 min 30 s
Bit rate                                 : 45 b/s
Count of elements                        : 624
Stream size                              : 18.5 KiB (0%)
Language                                 : Indonesian
Default                                  : No
Forced                                   : No

Text #16
ID                                       : 19
Format                                   : UTF-8
Codec ID                                 : S_TEXT/UTF8
Codec ID/Info                            : UTF-8 Plain Text
Duration                                 : 55 min 32 s
Bit rate                                 : 43 b/s
Count of elements                        : 602
Stream size                              : 17.6 KiB (0%)
Language                                 : Italian
Default                                  : No
Forced                                   : No

Text #17
ID                                       : 20
Format                                   : UTF-8
Codec ID                                 : S_TEXT/UTF8
Codec ID/Info                            : UTF-8 Plain Text
Duration                                 : 55 min 30 s
Bit rate                                 : 41 b/s
Count of elements                        : 623
Stream size                              : 16.8 KiB (0%)
Language                                 : Japanese
Default                                  : No
Forced                                   : No

Text #18
ID                                       : 21
Format                                   : UTF-8
Codec ID                                 : S_TEXT/UTF8
Codec ID/Info                            : UTF-8 Plain Text
Duration                                 : 55 min 32 s
Bit rate                                 : 63 b/s
Count of elements                        : 630
Stream size                              : 25.8 KiB (0%)
Language                                 : Korean
Default                                  : No
Forced                                   : No

Text #19
ID                                       : 22
Format                                   : UTF-8
Codec ID                                 : S_TEXT/UTF8
Codec ID/Info                            : UTF-8 Plain Text
Duration                                 : 55 min 30 s
Bit rate                                 : 43 b/s
Count of elements                        : 567
Stream size                              : 17.5 KiB (0%)
Language                                 : Norwegian Bokmal
Default                                  : No
Forced                                   : No

Text #20
ID                                       : 23
Format                                   : UTF-8
Codec ID                                 : S_TEXT/UTF8
Codec ID/Info                            : UTF-8 Plain Text
Duration                                 : 55 min 30 s
Bit rate                                 : 45 b/s
Count of elements                        : 540
Stream size                              : 18.3 KiB (0%)
Language                                 : Dutch
Default                                  : No
Forced                                   : No

Text #21
ID                                       : 24
Format                                   : UTF-8
Codec ID                                 : S_TEXT/UTF8
Codec ID/Info                            : UTF-8 Plain Text
Duration                                 : 55 min 32 s
Bit rate                                 : 43 b/s
Count of elements                        : 578
Stream size                              : 17.5 KiB (0%)
Language                                 : Polish
Default                                  : No
Forced                                   : No

Text #22
ID                                       : 25
Format                                   : UTF-8
Codec ID                                 : S_TEXT/UTF8
Codec ID/Info                            : UTF-8 Plain Text
Duration                                 : 55 min 30 s
Bit rate                                 : 49 b/s
Count of elements                        : 633
Stream size                              : 20.0 KiB (0%)
Language                                 : Portuguese
Default                                  : No
Forced                                   : No

Text #23
ID                                       : 26
Format                                   : UTF-8
Codec ID                                 : S_TEXT/UTF8
Codec ID/Info                            : UTF-8 Plain Text
Duration                                 : 55 min 30 s
Bit rate                                 : 45 b/s
Count of elements                        : 603
Stream size                              : 18.5 KiB (0%)
Title                                    : Brazilian
Language                                 : Portuguese
Default                                  : No
Forced                                   : No

Text #24
ID                                       : 27
Format                                   : UTF-8
Codec ID                                 : S_TEXT/UTF8
Codec ID/Info                            : UTF-8 Plain Text
Duration                                 : 55 min 32 s
Bit rate                                 : 48 b/s
Count of elements                        : 566
Stream size                              : 19.8 KiB (0%)
Language                                 : Romanian
Default                                  : No
Forced                                   : No

Text #25
ID                                       : 28
Format                                   : UTF-8
Codec ID                                 : S_TEXT/UTF8
Codec ID/Info                            : UTF-8 Plain Text
Duration                                 : 55 min 30 s
Bit rate                                 : 45 b/s
Count of elements                        : 467
Stream size                              : 18.6 KiB (0%)
Language                                 : Swedish
Default                                  : No
Forced                                   : No

Text #26
ID                                       : 29
Format                                   : UTF-8
Codec ID                                 : S_TEXT/UTF8
Codec ID/Info                            : UTF-8 Plain Text
Duration                                 : 55 min 30 s
Bit rate                                 : 137 b/s
Count of elements                        : 631
Stream size                              : 55.8 KiB (0%)
Language                                 : Thai
Default                                  : No
Forced                                   : No

Text #27
ID                                       : 30
Format                                   : UTF-8
Codec ID                                 : S_TEXT/UTF8
Codec ID/Info                            : UTF-8 Plain Text
Duration                                 : 55 min 30 s
Bit rate                                 : 47 b/s
Count of elements                        : 542
Stream size                              : 19.4 KiB (0%)
Language                                 : Turkish
Default                                  : No
Forced                                   : No

Text #28
ID                                       : 31
Format                                   : UTF-8
Codec ID                                 : S_TEXT/UTF8
Codec ID/Info                            : UTF-8 Plain Text
Duration                                 : 55 min 30 s
Bit rate                                 : 65 b/s
Count of elements                        : 606
Stream size                              : 26.5 KiB (0%)
Language                                 : Vietnamese
Default                                  : No
Forced                                   : No

Text #29
ID                                       : 32
Format                                   : UTF-8
Codec ID                                 : S_TEXT/UTF8
Codec ID/Info                            : UTF-8 Plain Text
Duration                                 : 55 min 30 s
Bit rate                                 : 47 b/s
Count of elements                        : 626
Stream size                              : 19.5 KiB (0%)
Title                                    : Simplified
Language                                 : Chinese
Default                                  : No
Forced                                   : No

Text #30
ID                                       : 33
Format                                   : UTF-8
Codec ID                                 : S_TEXT/UTF8
Codec ID/Info                            : UTF-8 Plain Text
Duration                                 : 55 min 30 s
Bit rate                                 : 47 b/s
Count of elements                        : 631
Stream size                              : 19.3 KiB (0%)
Title                                    : Traditional
Language                                 : Chinese
Default                                  : No
Forced                                   : No

Скріншоти


Джерело:


Авторський реліз (завантажувати можна без реєстрації)
 Трекер:    Зареєстрований   

Завантажити / скачати серіал українською



відео для новачків



 Зареєстрований:   2020-10-13 00:37
 Розмір:   15.82 GB 
 Оцінка серіалу:   8.9/10 (Голосів: 8)
   
antik_2008 
Релізер і модератор відео


З нами з: 20.10.08
Востаннє: 25.11.20
Повідомлень: 4350

2020-11-12 19:59  
Очікував більшого
так на один раз

Ваш часовий пояс: GMT + 2 Години

Нова тема   Відповісти