Мулан / Mulan (2020) AVC 2xUkr/Eng | Sub Ukr/Eng

Нові коментарі

Нова тема   Відповісти
Автор Повідомлення
eneyida.tv 
Частий відвідувач


З нами з: 27.09.19
Востаннє: 22.10.20
Повідомлень: 46

2020-10-12 16:11  
Мулан / Mulan (2020) AVC 2xUkr/Eng | Sub Ukr/Eng

Мулан / Mulan (2020) AVC 2xUkr/Eng | Sub Ukr/Eng


Жанр: драма, пригодницький, сімейний, фентезі, екшн
Країна: США, Канада, Гонконг



Кінокомпанія: Walt Disney Pictures
Режисер: Нікі Каро
Актори: Іфей Лю, Донні Єн, Ґун Лі, Джет Лі, Джейсон Скотт Лі, Йосон Ан, Ма Ці, Розалінд Чао, Рон Юань, Джан Ю

Сюжет:
Для Китайської імперії настали темні часи. Із півночі на країну наступає грізне військо нещадних загарбників, які жадають крові невинних людей. Імператор видав указ, що кожна сім'я повинна дати одного чоловіка для захисту країни. Хуа завжди був хоробрим воїном, але зараз на старості років, його долають хвороби. Але він єдиний чоловік у своїй родині, Бог нагородив його двома дочками. Мулан, старша з них, завжди відрізнялася від своїх одноліток. Рішуча, смілива та спритна дівчина не може відпустити батька на вірну смерть – вона сама піде до війська, прикинувшись хлопцем. Це буде складний шлях для дівчини, який зробить її одним із найбільших воїнів у історії Китаю.


Тривалість: 01:55:08
Якість:
Відео:
кодек:
розмір кадру: 1024 x 428
бітрейт: 1924 кб/с

Аудіо # 1:
мова: українська
переклад: професійний дубльований
кодек: 2.0
бітрейт: 192 кб/с

Аудіо # 2:
мова: українська
переклад: одноголосий закадровий | В одне рило
кодек: 2.0
бітрейт: 192 кб/с

Аудіо # 3:
мова: англійська
переклад: оригінал
кодек: 5.1
бітрейт: 448 кб/с

Субтитри # 1:
мова: українська
тип: програмні (м'які)
формат: *.srt
переклад: машинний редагований переклад killer2015

Субтитри # 2:
мова: англійська (SDH)
тип: програмні (м'які)
формат: *.srt
Info
Код:
Video
ID                          : 1
Format                      : AVC
Format/Info                 : Advanced Video Codec
Format profile              : [email protected]
Format settings             : CABAC / 11 Ref Frames
Format settings, CABAC      : Yes
Format settings, Reference  : 11 frames
Codec ID                    : V_MPEG4/ISO/AVC
Duration                    : 1 h 55 min
Bit rate                    : 1 924 kb/s
Width                       : 1 024 pixels
Height                      : 428 pixels
Display aspect ratio        : 2.40:1
Frame rate mode             : Constant
Frame rate                  : 23.976 (23976/1000) FPS
Color space                 : YUV
Chroma subsampling          : 4:2:0
Bit depth                   : 8 bits
Scan type                   : Progressive
Bits/(Pixel*Frame)          : 0.183
Stream size                 : 1.55 GiB (70%)
Title                       : Мулан / Mulan (2020) AVC [ExKinoRay]
Writing library             : core 152 r2851 ba24899
Encoding settings           : cabac=1 / ref=11 / deblock=1:-2:-2 / analyse=0x3:0x113 / me=umh / subme=10 / psy=1 / psy_rd=1.02:0.07 / mixed_ref=1 / me_range=32 / chroma_me=1 / trellis=2 / 8x8dct=1 / cqm=0 / deadzone=21,11 / fast_pskip=0 / chroma_qp_offset=-3 / threads=12 / lookahead_threads=2 / sliced_threads=0 / nr=0 / decimate=0 / interlaced=0 / bluray_compat=0 / constrained_intra=0 / bframes=9 / b_pyramid=2 / b_adapt=2 / b_bias=0 / direct=3 / weightb=1 / open_gop=0 / weightp=2 / keyint=240 / keyint_min=23 / scenecut=40 / intra_refresh=0 / rc=2pass / mbtree=0 / bitrate=1924 / ratetol=1.0 / qcomp=0.60 / qpmin=0 / qpmax=51 / qpstep=4 / cplxblur=20.0 / qblur=0.5 / ip_ratio=1.30 / pb_ratio=1.20 / aq=1:1.00
Language                    : English
Default                     : Yes
Forced                      : No
Color range                 : Limited
Color primaries             : BT.709
Transfer characteristics    : BT.709
Matrix coefficients         : BT.709

Audio #1
ID                          : 2
Format                      : AC-3
Format/Info                 : Audio Coding 3
Commercial name             : Dolby Digital
Codec ID                    : A_AC3
Duration                    : 1 h 55 min
Bit rate mode               : Constant
Bit rate                    : 192 kb/s
Channel(s)                  : 2 channels
Channel layout              : L R
Sampling rate               : 48.0 kHz
Frame rate                  : 31.250 FPS (1536 SPF)
Compression mode            : Lossy
Stream size                 : 158 MiB (7%)
Title                       : Dub [official]
Language                    : Ukrainian
Service kind                : Complete Main
Default                     : Yes
Forced                      : Yes

Audio #2
ID                          : 3
Format                      : AC-3
Format/Info                 : Audio Coding 3
Commercial name             : Dolby Digital
Codec ID                    : A_AC3
Duration                    : 1 h 55 min
Bit rate mode               : Constant
Bit rate                    : 192 kb/s
Channel(s)                  : 2 channels
Channel layout              : L R
Sampling rate               : 48.0 kHz
Frame rate                  : 31.250 FPS (1536 SPF)
Compression mode            : Lossy
Stream size                 : 158 MiB (7%)
Title                       : AVO [В одне рило]
Language                    : Ukrainian
Service kind                : Complete Main
Default                     : No
Forced                      : No

Audio #3
ID                          : 4
Format                      : AC-3
Format/Info                 : Audio Coding 3
Commercial name             : Dolby Digital
Codec ID                    : A_AC3
Duration                    : 1 h 55 min
Bit rate mode               : Constant
Bit rate                    : 448 kb/s
Channel(s)                  : 6 channels
Channel layout              : L R C LFE Ls Rs
Sampling rate               : 48.0 kHz
Frame rate                  : 31.250 FPS (1536 SPF)
Compression mode            : Lossy
Stream size                 : 369 MiB (16%)
Title                       : Original
Language                    : English
Service kind                : Complete Main
Default                     : No
Forced                      : No

Text #1
ID                          : 5
Format                      : UTF-8
Codec ID                    : S_TEXT/UTF8
Codec ID/Info               : UTF-8 Plain Text
Duration                    : 1 h 43 min
Bit rate                    : 50 b/s
Count of elements           : 848
Stream size                 : 38.2 KiB (0%)
Title                       : Ukr Full [машинний редагований переклад killer2015]
Language                    : Ukrainian
Default                     : No
Forced                      : No

Text #2
ID                          : 6
Format                      : UTF-8
Codec ID                    : S_TEXT/UTF8
Codec ID/Info               : UTF-8 Plain Text
Duration                    : 1 h 50 min
Bit rate                    : 35 b/s
Count of elements           : 1150
Stream size                 : 28.5 KiB (0%)
Title                       : Eng SDH
Language                    : English
Default                     : No
Forced                      : No


Джерело: & eneyida.tv


Авторський реліз (завантажувати можна без реєстрації)
 Трекер:    Зареєстрований   

Завантажити / скачати фільм українською



відео для новачків



 Зареєстрований:   2020-10-13 15:17
 Розмір:   2.22 GB 
 Оцінка фільму:   8.1/10 (Голосів: 42)
   
Інші релізи
   Мулан / Mulan (2020) 1080p 2xUkr/Eng | Sub Ukr/Eng Neo_Men  39 / 0   15.64 GB   2020-10-13 16:55 
   Мулан / Mulan (2020) UHD 2160p 4K HDR H.265 2xUkr/Eng | Sub Ukr/Eng Neo_Men  24 / 0   13.74 GB   2020-10-13 16:26 
   Мулан / Mulan (2020) 720p 2xUkr/Eng | Sub Ukr/Eng igor911  32 / 0   4.24 GB   2020-10-13 15:44 
   Мулан / Mulan (2020) Ukr/Eng | Sub Ukr/Eng Done56  80 / 0   1.61 GB   2020-09-08 15:51 
   Мулан / Mulan (2020) Eng | sub Ukr killer2015  14 / 0   1.46 GB   2020-09-06 13:37 
bot 
робот


З нами з: 30.09.07
Востаннє: 26.05.05
Повідомлень: 25970

2020-10-12 16:11  
Тему перенесено з Фільми до форуму Анонси релізів


eneyida.tv

bot 
робот


З нами з: 30.09.07
Востаннє: 26.05.05
Повідомлень: 25970

2020-10-13 15:17  
Тему перенесено з Анонси релізів до форуму Фільми


igor911

Neo_Men 
Свій


З нами з: 21.11.15
Востаннє: 27.10.20
Повідомлень: 139

2020-10-13 15:50  
Дякую за дубльований - Line, оновлю свої роздачі ...
+1080, +2160
На анонсi я не бачив, тож оновлю ..

TeronUA 
VIP


З нами з: 13.02.09
Востаннє: 26.10.20
Повідомлень: 385

2020-10-13 16:28  
Це абсолютний провал діснею.
Як по кінематографу, так і по позиції щодо багатьох питань.

xomikvp 
Новенький


З нами з: 22.11.10
Востаннє: 27.10.20
Повідомлень: 14

2020-10-14 13:10  
Фільм що розповідає про сімейні цінності, повагу до держави, мужність, і т.д. Та як на мене він на 12+ балів з п'яти. Так мало екшину, маго графіки, нема великих намальованих масовок. Але це не суть фільму. Він не один раз як більшість теперішніх фільмів. Ну і цінність теперішніх часів(маю на увазі гроші) тут теж зневажають.
Коротче як на мене фільм СУПЕР!!!

midnight_man 
Свій


З нами з: 13.10.09
Востаннє: 27.10.20
Повідомлень: 128

2020-10-14 13:20  
Фільм класний! Особиста оцінка - 9/10.
truzyb3 
Новенький


З нами з: 09.12.16
Востаннє: 27.10.20
Повідомлень: 18

2020-10-17 03:50  
ну така чисто казочка для дітей... гра акторки ше більш-менш, а решта ну просто купи не тримається(((
MemfisANK 
Свій


З нами з: 09.07.10
Востаннє: 25.10.20
Повідомлень: 74

2020-10-18 22:17  
режисура - дно
постановка - дно
діалоги - дно
картинка - файно

Ваш часовий пояс: GMT + 2 Години

Нова тема   Відповісти