Шрек. Страшилка / Shrek. Thriller Night (2011) Remux 1080p Ukr/Eng | Sub Ukr/Eng

Нові коментарі

Нова тема   Відповісти
Останній раз роздавалося veniamin77 (2020-11-30)
Автор Повідомлення
Anonymous 







2020-10-12 00:09  
Шрек. Страшилка / Shrek. Thriller Night (2011) Remux 1080p Ukr/Eng | Sub Ukr/Eng

Шрек. Страшилка / Shrek. Thriller Night (2011) Remux 1080p Ukr/Eng | Sub Ukr/Eng


Жанр: анімація, жахи, мюзикл, комедія
Країна: США
Кінокомпанія: DreamWorks Animation
Режисер: Гері Трауздейл / Gary Trousdale, Шон Бішоп / Sean Bishop
Актори: Майкл Ґоу / Michael Gough, Дін Едвардс / Dean Edwards, Голлі Філдс / Holly Fields, Андре Согліуззо / André Sogliuzzo та ін.

Сюжет:
Шреку наскучив буденний Гелоуін, йому захотілося чогось насправді страшного. Сила "Страшилки" дала йому більше, ніж він очікував...

Тривалість: 00:06:09
Якість: Remux

Відео:
кодек:
розмір кадру: 1920 x 1080
бітрейт: 27 366 кб/с

Аудіо # 1:
мова: українська
переклад: двоголосий закадровий | UkrVoiceTeam
кодек: AC-3 2.0
бітрейт: 192 кб/с

Аудіо # 2:
мова: англійська
переклад: оригінал
кодек: -HD MA 7.1
бітрейт: 2579 кб/с

Субтитри # 1: (Full by somnambula)
мова: українська
тип: програмні (м'які)
формат: *.srt

Субтитри # 2-3: (Full, SDH)
мова: англійська
тип: програмні (м'які)
формат: *.srt


Info
Код:
General
Unique ID                                : 255885971917468251693062869389189880190 (0xC081D8770AF239DBA51ADF4DDE7C997E)
Complete name                            : Shrek. Thriller Night (2011) Remux [UKR_ENG] [Hurtom].
Format                                   :
Format version                           : Version 4
File size                                : 1.30 GiB
Duration                                 : 6 min 9 s
Overall bit rate mode                    : Variable
Overall bit rate                         : 30.1 Mb/s
Movie name                               : Шрек. Страшилка / Shrek. Thriller Night (2011)
Encoded date                             : UTC 2020-10-11 21:22:50
Writing application                      : v20.0.0 ('I Am The Sun') 64-bit
Writing library                          : libebml v1.3.5 + v1.4.8
Cover                                    : Yes
Attachments                              : Cover.jpg

Video
ID                                       : 1
Format                                   : AVC
Format/Info                              : Advanced Video Codec
Format profile                           : [email protected]
Format settings                          : CABAC / 4 Ref Frames
Format settings, CABAC                   : Yes
Format settings, Reference frames        : 4 frames
Codec ID                                 : V_MPEG4/ISO/AVC
Duration                                 : 6 min 9 s
Bit rate mode                            : Variable
Bit rate                                 : 27.4 Mb/s
Maximum bit rate                         : 38.0 Mb/s
Width                                    : 1 920 pixels
Height                                   : 1 080 pixels
Display aspect ratio                     : 16:9
Frame rate mode                          : Constant
Frame rate                               : 23.976 (24000/1001) FPS
Color space                              : YUV
Chroma subsampling                       : 4:2:0
Bit depth                                : 8 bits
Scan type                                : Progressive
Bits/(Pixel*Frame)                       : 0.550
Stream size                              : 1.18 GiB (91%)
Title                                    : Шрек. Страшилка / Shrek. Thriller Night (2011)
Language                                 : English
Default                                  : Yes
Forced                                   : No

Audio #1
ID                                       : 2
Format                                   : AC-3
Format/Info                              : Audio Coding 3
Commercial name                          : Dolby Digital
Codec ID                                 : A_AC3
Duration                                 : 6 min 9 s
Bit rate mode                            : Constant
Bit rate                                 : 192 kb/s
Channel(s)                               : 2 channels
Channel layout                           : L R
Sampling rate                            : 48.0 kHz
Frame rate                               : 31.250 FPS (1536 SPF)
Compression mode                         : Lossy
Stream size                              : 8.46 MiB (1%)
Title                                    : / 2.0 Ch / 192 kbps / DVO / UkrVoiceTeam
Language                                 : Ukrainian
Service kind                             : Complete Main
Default                                  : Yes
Forced                                   : Yes

Audio #2
ID                                       : 3
Format                                   : XLL
Format/Info                              : Digital Theater Systems
Commercial name                          : -HD Master Audio
Codec ID                                 : A_DTS
Duration                                 : 6 min 9 s
Bit rate mode                            : Variable
Bit rate                                 : 2 577 kb/s
Channel(s)                               : 8 channels
Channel layout                           : C L R LFE Lb Rb Lss Rss
Sampling rate                            : 48.0 kHz
Frame rate                               : 93.750 FPS (512 SPF)
Bit depth                                : 16 bits
Compression mode                         : Lossless
Stream size                              : 114 MiB (9%)
Title                                    : -HD MA / 7.1 Ch / 2442 kbps / Original
Language                                 : English
Default                                  : No
Forced                                   : No

Text #1
ID                                       : 4
Format                                   : UTF-8
Codec ID                                 : S_TEXT/UTF8
Codec ID/Info                            : UTF-8 Plain Text
Duration                                 : 4 min 40 s
Bit rate                                 : 125 b/s
Count of elements                        : 82
Stream size                              : 4.29 KiB (0%)
Title                                    : Full by somnambula
Language                                 : Ukrainian
Default                                  : No
Forced                                   : No

Text #2
ID                                       : 5
Format                                   : UTF-8
Codec ID                                 : S_TEXT/UTF8
Codec ID/Info                            : UTF-8 Plain Text
Duration                                 : 4 min 42 s
Bit rate                                 : 71 b/s
Count of elements                        : 81
Stream size                              : 2.45 KiB (0%)
Title                                    : Full
Language                                 : English
Default                                  : No
Forced                                   : No

Text #3
ID                                       : 6
Format                                   : UTF-8
Codec ID                                 : S_TEXT/UTF8
Codec ID/Info                            : UTF-8 Plain Text
Duration                                 : 5 min 1 s
Bit rate                                 : 85 b/s
Count of elements                        : 96
Stream size                              : 3.14 KiB (0%)
Title                                    : SDH
Language                                 : English
Default                                  : No
Forced                                   : No
Світлини




Джерело: &
Особиста оцінка: 0 - не дивився


Авторський реліз (завантажувати можна без реєстрації)
 Трекер:    Зареєстрований   

Завантажити / скачати фільм українською



відео для новачків



 Зареєстрований:   2020-10-12 00:09
 Розмір:   1.3 GB 
 Оцінка фільму:   10/10 (Голосів: 2)
   
Ваш часовий пояс: GMT + 2 Години

Нова тема   Відповісти